2 сезон

iTunes

MVO

1

2 сезон

iTunes

iTunes

1 сезон

RePack

30

Новинка

ВАЖНО

ИГРА 18+

pack

RePack

MK11
pack

Легкие деньги

RePack

jed

RePack

fifa19

RePack

RDR2

RePack

NEED FOR SPEED™ PAYBACK

4 сезон

9 сезон

Бесстыжие 9 сезон

Все сериалы

все сериалы на PB.wtf

RePack

FAR CRY 5

Anonymous, доброе утро, мы не успеваем собрать деньги на оплату серверов за декабрь и январь, помогите нам пожалуйста в это трудное время. В качестве благодарности мы отключим Вам всю рекламу на сайте (укажите свой ник в строку Ваше имя)!

×
  
Magnet ссылка

Ромео и Джульетта / Romeo and Juliet (Карло Карлей) [2013 г., Драма, мелодрама, BDRip, Дубляж, Лицензия] pb.wtf

Ромео и Джульетта через торрент pb.wtf

Размер: 2.18 GB | Добавлен: 6 лет 11 мес. назад | Торрент скачан:323 раза
Скачать  

13-02-2014 08:02 Ромео и Джульетта Скачать торрент  

Ромео и Джульетта / Romeo and Juliet
Год выпуска: 2013
Страна: Великобритания, Италия, Швейцария
Жанр: Драма, мелодрама,
Продолжительность: 01:58:32
Перевод: Дубляж, Лицензия
Тип релиза: Лицензия
Субтитры: отсутствуют

Режиссер: Карло Карлей
Продюссер: Саймон Босанкет, Марко Коэн, Фабрицио Донвито
Сценарий: Джулиан Феллоуз, Уильям Шекспир

Премьера в мире: 24 сентября 2013, ...

рейтинг PG-13 детям до 13 лет просмотр не желателен



В ролях: Дуглас Бут, Хейли Стайнфелд, Дэмиэн Льюис, Коди Смит-МакФи, Эд Вествик, Пол Джаматти, Томас Арана, Наташа МакЭлхоун, Стеллан Скарсгард, Лесли Мэнвилл,

Описание: Верона. Эпоха Раннего Возрождения. Юноша и девушка из враждующих семей влюбляются друг в друга. Рок не дает им быть вместе. Лишь смерть на пике запретной страсти помогает Ромео и Джульетте спасти свою любовь.

Качество: BDRip
Формат: AVI
Видео кодек: XviD
Аудио кодек: AC3
Видео: 720x304 (2.37:1), 23.976 fps, XviD build 50 ~1731 kbps avg, 0.33 bit/pixel
Аудио#1: Русский: 48 kHz, AC3 Dolby Digital, 3/2 (L,C,R,l,r) + LFE ch, ~448.00 kbps avg
Аудио#2: Английский: 48 kHz, AC3 Dolby Digital, 3/2 (L,C,R,l,r) + LFE ch, ~448.00 kbps avg

Общее
Полное имя : F:ЗакачкиRomeo.I.Djulyetta.2013.BDRip.avi
Формат : AVI
Формат/Информация : Audio Video Interleave
Профиль формата : OpenDML
Размер файла : 2,18 Гбайт
Продолжительность : 1 ч. 58 м.
Общий поток : 2634 Кбит/сек
Программа кодирования : VirtualDubModRus 1.5.10.2 (build 2542/release)
Библиотека кодирования : VirtualDubMod build 2542/release

Видео
Идентификатор : 0
Формат : MPEG-4 Visual
Профиль формата : Advanced Simple@L5
Параметр BVOP формата : 2
Параметр QPel формата : Нет
Параметр GMC формата : Без точки перехода
Параметр матрицы формата : Default (H.263)
Идентификатор кодека : XVID
Идентификатор кодека/Подсказка : XviD
Продолжительность : 1 ч. 58 м.
Битрейт : 1721 Кбит/сек
Ширина : 720 пикселей
Высота : 304 пикселя
Соотношение сторон : 2,35:1
Частота кадров : 23,976 кадра/сек
Цветовое пространство : YUV
Субдискретизация насыщенности : 4:2:0
Битовая глубина : 8 бит
Тип развёртки : Прогрессивная
Метод сжатия : С потерями
Бит/(Пиксели*Кадры) : 0.328
Размер потока : 1,42 Гбайт (65%)
Библиотека кодирования : XviD 1.2.1 (UTC 2008-12-04)

Аудио #1
Идентификатор : 1
Формат : AC-3
Формат/Информация : Audio Coding 3
Расширение режима : CM (complete main)
Параметр Endianness формата : Big
Идентификатор кодека : 2000
Продолжительность : 1 ч. 58 м.
Вид битрейта : Постоянный
Битрейт : 448 Кбит/сек
Каналы : 6 каналов
Расположение каналов : Front: L C R, Side: L R, LFE
Частота : 48,0 КГц
Битовая глубина : 16 бит
Метод сжатия : С потерями
Размер потока : 380 Мбайт (17%)
Выравнивание : Разделение по промежуткам
Продолжительность промежутка : 42 мс. (1,00 видеокадр)
Время предзагрузки промежутка : 500 мс.

Аудио #2
Идентификатор : 2
Формат : AC-3
Формат/Информация : Audio Coding 3
Расширение режима : CM (complete main)
Параметр Endianness формата : Big
Идентификатор кодека : 2000
Продолжительность : 1 ч. 58 м.
Вид битрейта : Постоянный
Битрейт : 448 Кбит/сек
Каналы : 6 каналов
Расположение каналов : Front: L C R, Side: L R, LFE
Частота : 48,0 КГц
Битовая глубина : 16 бит
Метод сжатия : С потерями
Размер потока : 380 Мбайт (17%)
Выравнивание : Разделение по промежуткам
Продолжительность промежутка : 42 мс. (1,00 видеокадр)
Время предзагрузки промежутка : 500 мс.


Ромео и Джульетта скачать торрент


pb.wtf



Скачать Ромео и Джульетта через торрент http://s9.uploads.ru/5EWQZ.jpg Скачать фильм Ромео и Джульетта через торрент бесплантно в хорошем качестве Описание: Верона. Эпоха Раннего Возрождения. Юноша и девушка из враждующих семей влюбляются друг в друга. Рок не дает им быть вместе. Лишь ... 9.8 10 12
Info! Золотая раздача, скачанное не засчитывается.
Торрент: Зарегистрирован [2014-02-13 08:02] · скачан: 323 раз
Статус: √ проверено
Размер: 2.18 GB
Как cкачать? Как скачать Ромео и Джульетта через торрент | UTorrent

% Раздел Тема Автор DL S | L
Фильмы (Blu-ray, BD-Remux, HDDVD) [ 27.69 GB ] Ромео и Джульетта / Romeo and Juliet [2013 BD-Remux USA Transfer ] Seedtank Скачать
1 | 0
Фильмы [HD 720p, 1080p] (Звук Cam, VO, DVO) [ 4.67 GB ] Ромео и Джульетта / Romeo and Juliet [1968 Мелодрада HDTVRip 720p ] Caня Скачать
1 | 0
Фильмы (Blu-ray, BD-Remux, HDDVD) [ 33.2 GB ] Ромео и Джульетта / Romeo and Juliet [2013 USA Transfer / Blu-Ray Remux ] кэп Скачать
1 | 0
Классические порно фильмы [ 1.12 GB ] Juliet And Romeo / Джульетта и Ромео [1995 All Sex Feature Oral Anal Foreign Group / Joe D'Amato) DVDRip] Majestro Скачать
1 | 0
Фильмы 2013 [DVDrip, WEB-DLRip, HDrip] [ 1.46 GB ] Ромео и Джульетта / Romeo and Juliet [2013 HDRip [] MihailHD Скачать
1 | 0
Фильмы (DVD фильмы) [ 6.76 GB ] Ромео и Джульетта / Romeo and Juliet [2013 DVD9] R5 voovaz Скачать
1 | 0
Фильмы 2013 [DVDrip, WEB-DLRip, HDrip] [ 2.19 GB ] Ромео и Джульетта / Romeo and Juliet [2013 WEB-DLRip ] coc900 Скачать
1 | 0

28-11-2019 20:33  

Отключить всю рекламу на сайте

    Дорогой пользователь! Огромная просьба, поблагодарите релизера, оцените раздачу и оставьте свои комментарий, если Вы скачали Ромео и Джульетта через торрент бесплатно! Внесите свою лепту в развитие PiratBit!
    Комментировать посты могут только пользователи прошедшие не сложную регистрацию
    Показать сообщения:    

    Ромео и Джульетта через торрент
    Скачать бесплатно Ромео и Джульетта
    Ромео и Джульетта скачать торрент
    Ромео и Джульетта смотреть онлайн
    Cкачать фильм Ромео и Джульетта бесплатно
    Ромео и Джульетта скачать торрент в хорошем качестве
    Ромео и Джульетта смотреть онлайн бесплатно в хорошем качестве


    Вы не можете начинать темы
    Вы не можете отвечать на сообщения
    Вы не можете редактировать свои сообщения
    Вы не можете удалять свои сообщения
    Вы не можете голосовать в опросах
    Вы не можете прикреплять файлы к сообщениям
    Вы можете скачивать файлы