2 сезон

iTunes

MVO

1

2 сезон

iTunes

iTunes

1 сезон

RePack

30

Новинка

ВАЖНО

ИГРА 18+

pack

RePack

MK11
pack

Легкие деньги

RePack

jed

RePack

fifa19

RePack

RDR2

RePack

NEED FOR SPEED™ PAYBACK

4 сезон

9 сезон

Бесстыжие 9 сезон

Все сериалы

все сериалы на PB.wtf

RePack

FAR CRY 5

Anonymous, добрый день, мы не успеваем собрать деньги на оплату серверов за декабрь и январь, помогите нам пожалуйста в это трудное время. В качестве благодарности мы отключим Вам всю рекламу на сайте (укажите свой ник в строку Ваше имя)!

×
  
Magnet ссылка

Выдача багажа / Baggage Claim (Дэвид Е. Талберт) [2013 г., комедия, HDRip, Профессиональный многоголосый, Лицензия] pb.wtf

Выдача багажа через торрент pb.wtf

Размер: 1.37 GB | Добавлен: 6 лет 11 мес. назад | Торрент скачан:667 раз
Скачать  

13-02-2014 13:25 Выдача багажа Скачать торрент  

Выдача багажа / Baggage Claim
Год выпуска: 2013
Страна: США / Sneak Preview Productions
Жанр: комедия,
Продолжительность: 01:36:30
Перевод: Профессиональный многоголосый, Лицензия
Тип релиза: Лицензия

Режиссер: Дэвид Е. Талберт

Бюджет: $8 500 000

http://www.kinopoisk.ru/film/731133/

В ролях: Пола Пэттон, Дерек Люк, Тэй Диггз, Борис Коджо, Трей Сонгз, Джилл Скотт, Адам Броди, Дженифер Льюис, Джимон Хонсу, Лорен Лондон,

Описание: Пообещав не стать самой старшей незамужней женщиной в своей семье, Монтана отправляется на тридцатидневную экспедицию, чтобы очаровать потенциальных женихов.

Качество: HDRip
Формат: AVI
Видео кодек: XviD
Аудио кодек: AC3
Видео: 720x384 (1.88:1), 23.976 fps, XviD build 50 ~1634 kbps avg, 0.25 bit/pixel
Аудио 1: 48 kHz, AC3 Dolby Digital, 3/2 (L,C,R,l,r) + LFE ch, ~384 kbps





Общее
Полное имя : C:UsersНикитаDownloadsVydacha.bagazha.2013.P.HDRip.1400Mb.avi
Формат : AVI
Формат/Информация : Audio Video Interleave
Размер файла : 1,37 Гбайт
Продолжительность : 1 ч. 36 м.
Общий поток : 2028 Кбит/сек
Программа кодирования : VirtualDubMod 1.5.10.3 | www.virtualdub-fr.org || (build 2550/release)
Библиотека кодирования : VirtualDubMod build 2550/release

Видео
Идентификатор : 0
Формат : MPEG-4 Visual
Профиль формата : Advanced Simple@L5
Параметр BVOP формата : 1
Параметр QPel формата : Нет
Параметр GMC формата : Без точки перехода
Параметр матрицы формата : Выборочная
Идентификатор кодека : XVID
Идентификатор кодека/Подсказка : XviD
Продолжительность : 1 ч. 36 м.
Битрейт : 1635 Кбит/сек
Ширина : 720 пикселей
Высота : 384 пикселя
Соотношение сторон : 1,85:1
Частота кадров : 23,976 кадра/сек
Цветовое пространство : YUV
Субдискретизация насыщенности : 4:2:0
Битовая глубина : 8 бит
Тип развёртки : Прогрессивная
Метод сжатия : С потерями
Бит/(Пиксели*Кадры) : 0.247
Размер потока : 1,10 Гбайт (81%)
Библиотека кодирования : XviD 1.2.1 (UTC 2008-12-04)

Аудио
Идентификатор : 1
Формат : AC-3
Формат/Информация : Audio Coding 3
Расширение режима : CM (complete main)
Параметр Endianness формата : Big
Идентификатор кодека : 2000
Продолжительность : 1 ч. 36 м.
Вид битрейта : Постоянный
Битрейт : 384 Кбит/сек
Каналы : 6 каналов
Расположение каналов : Front: L C R, Side: L R, LFE
Частота : 48,0 КГц
Битовая глубина : 16 бит
Метод сжатия : С потерями
Размер потока : 265 Мбайт (19%)
Выравнивание : Разделение по промежуткам
Продолжительность промежутка : 42 мс. (1,00 видеокадр)
Время предзагрузки промежутка : 500 мс.
pb.wtf



Скачать Выдача багажа через торрент http://pic.kartinco.top/images/6/qofby.jpg Скачать фильм Выдача багажа через торрент бесплантно в хорошем качестве Описание: Пообещав не стать самой старшей незамужней женщиной в своей семье, Монтана отправляется на тридцатидневную экспедицию, чтобы ... 9.1 10 24
Info! Золотая раздача, скачанное не засчитывается.
Торрент: Зарегистрирован [2014-02-13 13:25] · скачан: 667 раз
Статус: √ проверено
Размер: 1.37 GB
Как cкачать? Как скачать Выдача багажа через торрент | UTorrent

% Раздел Тема Автор DL S | L
Фильмы [HD 720p, 1080p] (Хороший звук DUB, MVO) [ 7.58 GB ] Выдача багажа / Baggage Claim [2013 BDRip 1080p ] от R.G. PiratFilms XLASER Скачать
1 | 0
Фильмы [HD 720p, 1080p] (Хороший звук DUB, MVO) [ 3.96 GB ] Выдача багажа / Baggage Claim [2013 BDRip 720p ] от R.G. PiratFilms XLASER Скачать
1 | 0


Последний раз редактировалось: ПоЗИТиВ (2014-02-13 14:50), всего редактировалось 1 раз

28-11-2019 20:33  

Отключить всю рекламу на сайте

13-02-2014 13:39 Выдача багажа Скачать торрент  

Давно заметил: если в комедии одни негритосы, то фильм дрянь-дрянью!pb.wtf



  Мат в чате, выдал Pavlin

13-02-2014 14:55 Выдача багажа Скачать торрент  

а как же знаменитая "ПЯТНИЦА"???????pb.wtf



13-02-2014 15:05 Выдача багажа Скачать торрент  

Я не расист но такое обилие негров напрягает. pb.wtf



13-02-2014 16:24 Выдача багажа Скачать торрент  

Фильм про негров, снятый неграми для негров.pb.wtf



13-02-2014 16:40 Выдача багажа Скачать торрент  

фу, какие нетолерантные комментарии! :rofle:pb.wtf



14-02-2014 08:07 Выдача багажа Скачать торрент  

это фильм нетолерантен по отношению к белым )))pb.wtf



16-02-2014 17:23 Выдача багажа Скачать торрент  

Расисты. А фильм пойдёт на разок.pb.wtf



16-02-2014 18:13 Выдача багажа Скачать торрент  

шлак, не стоит внимания.pb.wtf



18-02-2014 13:24 Выдача багажа Скачать торрент  

Пообещав не стать самой старшей незамужней женщиной в своей семье

не проще - пожелавшая выйти замужpb.wtf



    Дорогой пользователь! Огромная просьба, поблагодарите релизера, оцените раздачу и оставьте свои комментарий, если Вы скачали Выдача багажа через торрент бесплатно! Внесите свою лепту в развитие PiratBit!
    Комментировать посты могут только пользователи прошедшие не сложную регистрацию
    Показать сообщения:    

    Выдача багажа через торрент
    Скачать бесплатно Выдача багажа
    Выдача багажа скачать торрент
    Выдача багажа смотреть онлайн
    Cкачать фильм Выдача багажа бесплатно
    Выдача багажа скачать торрент в хорошем качестве
    Выдача багажа смотреть онлайн бесплатно в хорошем качестве


    Вы не можете начинать темы
    Вы не можете отвечать на сообщения
    Вы не можете редактировать свои сообщения
    Вы не можете удалять свои сообщения
    Вы не можете голосовать в опросах
    Вы не можете прикреплять файлы к сообщениям
    Вы можете скачивать файлы