MEGA SALE -50% FORZA HORIZON 4 ULTIMATE+ВСЕ DLC+ОНЛАЙН всего за 599р. 299 руб. (супер цена). Внимание количество ограничено!!!

iTunes

1+1

iTunes

мы

iTunes

1

iTunes

Чернобыль

iTunes

Ральф против интернета

Лицензия

ПШазам

Лицензия

Игра престолов

Лицензия

30
pack

ВАЖНО

!!Акция!!

Alien_RageХит недели

RePack

Resident Evil 21

ИГРА 18+

pack

RePack

Metro:Exodus

!!Акция!!

Alien_Rage

RePack

fifa19

RePack

Assassins Creed: Odyssey

RePack

NEED FOR SPEED™ PAYBACK

3 сезон

9 сезон

Бесстыжие 9 сезон

Все сериалы

все сериалы на PB.wtf

RePack

FAR CRY 5
Ребята, катастрофически не хватает 7730р. для оплаты серверов за АВГУСТ (всвязи с блокировками трафик упал в 3 раза), 1-2р., выручайте.
  

Знак смерти / Смертельный знак / Dead Sign (Лю Хуэй / Liu Hui) [2013, Китай, мистика, драма, HDRip] DVO pb.wtf

Знак смерти через торрент pb.wtf

Размер: 1.46 GB | Добавлен: 5 лет 7 мес. назад | Торрент скачан:474 раза
Скачать  

14-02-2014 00:33 Знак смерти Скачать торрент  

Знак смерти / Смертельный знак / Dead Sign


  • Год выпуска: 2013
  • Страна: Китай
  • Жанр: ужасы, триллер
  • Продолжительность: 01:29:15
  • Перевод: Любительский (двухголосый)[den904, DeadSno]

  • Субтитры: Нет
  • Режиссер:Hui Liu
  • В ролях:Янг Хао, Женг Лью, Jiang Song, Jiexi Wang, Haiqiao Xu, Lei Yang, Zhao-bei Zhang
    • Описание:
      Покинувший давным-давно родительский дом, Кан Кай снова возвращается туда вместе со своими друзьями, чтобы найти пещеру с наскальной живописью, в которой он побывал в детстве. Но путь к пещере, расположенной вглубине гор, станет для всех них путешествием в собственные тайны, которые, как и обвал, внезапно обрушившийся, могут привести к гибели.

    • Качество:HDRip
    • Формат:AVI
    • Видео кодек: XviD
    • Аудио кодек:MP3
    • Видео: XviD, 720x304 (2.35:1), 2142 kbps, 25 fps, 0,392 bpp
    • Аудио: MP3 / 2.0 / 48 kHz / 192 kbps /


    Код:

    General
    Complete name                            : D:Торенты2013_Dead Sign.avi
    Format                                   : AVI
    Format/Info                              : Audio Video Interleave
    File size                                : 1.46 GiB
    Duration                                 : 1h 29mn
    Overall bit rate                         : 2 344 Kbps
    Writing application                      : VirtualDubMod 1.5.10.2 (build 2540/release)
    Writing library                          : VirtualDubMod build 2540/release

    Video
    ID                                       : 0
    Format                                   : MPEG-4 Visual
    Format profile                           : Advanced Simple@L5
    Format settings, BVOP                    : 1
    Format settings, QPel                    : No
    Format settings, GMC                     : No warppoints
    Format settings, Matrix                  : Custom
    Codec ID                                 : XVID
    Codec ID/Hint                            : XviD
    Duration                                 : 1h 29mn
    Bit rate                                 : 2 143 Kbps
    Width                                    : 720 pixels
    Height                                   : 304 pixels
    Display aspect ratio                     : 2.35:1
    Frame rate                               : 25.000 fps
    Color space                              : YUV
    Chroma subsampling                       : 4:2:0
    Bit depth                                : 8 bits
    Scan type                                : Progressive
    Compression mode                         : Lossy
    Bits/(Pixel*Frame)                       : 0.392
    Stream size                              : 1.34 GiB (91%)
    Writing library                          : XviD 73

    Audio
    ID                                       : 1
    Format                                   : MPEG Audio
    Format version                           : Version 1
    Format profile                           : Layer 3
    Mode                                     : Joint stereo
    Codec ID                                 : 55
    Codec ID/Hint                            : MP3
    Duration                                 : 1h 29mn
    Bit rate mode                            : Constant
    Bit rate                                 : 192 Kbps
    Channel(s)                               : 2 channels
    Sampling rate                            : 48.0 KHz
    Compression mode                         : Lossy
    Stream size                              : 123 MiB (8%)
    Alignment                                : Aligned on interleaves
    Interleave, duration                     : 40 ms (1.00 video frame)
    Interleave, preload duration             : 504 ms


    Скриншоты:

    Трейлеры к фильмам [2014]


    © Оформление by Ravenpb.wtf



  • Скачать Знак смерти через торрент http://i3.imageban.ru/out/2014/02/14/861011dcb69767d4221a711e36ef6543.png Скачать фильм Знак смерти через торрент бесплантно в хорошем качестве Описание:Покинувший давным-давно родительский дом, Кан Кай снова возвращается туда вместе со своими друзьями, чтобы найти пещеру с ... 9.3 10 17
    Info! Золотая раздача, скачанное не засчитывается.
    Торрент: Зарегистрирован [2014-02-14 00:33] · скачан: 474 раз
    Статус: √ проверено
    Размер: 1.46 GB
    Как cкачать? Как скачать Знак смерти через торрент | qTorrent


    >> Регистрируемся здесь <<






    Отзывы и комментарии о схеме читаем и пишем здесь: ---> Отзывы и комментарии о схеме

    Новые благодарочки в телеграм довольных пользователей:
    скриншот   скриншот   скриншот   скриншот   скриншот

    15-02-2014 06:50 Знак смерти Скачать торрент  

    как фильм?pb.wtf



    15-02-2014 19:55 Знак смерти Скачать торрент  

    sobachiy писал(а):

    как фильм?

    Как и режиссер.pb.wtf



    16-02-2014 06:32 Знак смерти Скачать торрент  

    ivancapoeira писал(а):

    sobachiy писал(а):

    как фильм?

    Как и режиссер.

    Красавчик yes yes yespb.wtf



    22-02-2014 18:02 Знак смерти Скачать торрент  

    Сергей9846 писал(а):

    ivancapoeira писал(а):

    sobachiy писал(а):

    как фильм?

    Как и режиссер.

    Красавчик yes yes yes

    pb.wtf



    25-02-2014 14:47 Знак смерти Скачать торрент  

    ivancapoeira писал(а):

    sobachiy писал(а):

    как фильм?

    Как и режиссер.

    pb.wtf



    03-03-2014 05:51 Знак смерти Скачать торрент  

    no.118 писал(а):

    ivancapoeira писал(а):

    sobachiy писал(а):

    как фильм?

    Как и режиссер.


    :rofle: :rofle: :rofle: :rofle:pb.wtf



    05-03-2014 09:39 Знак смерти Скачать торрент  

    Ржу не могу-фильм как режиссер.Комедия это теперь :)pb.wtf



      Дорогой пользователь! Огромная просьба, поблагодарите релизера, оцените раздачу и оставьте свои комментарий, если Вы скачали Знак смерти через торрент бесплатно! Внесите свою лепту в развитие PiratBit!
      Комментировать посты могут только пользователи прошедшие не сложную регистрацию
      Показать сообщения:    

      Знак смерти через торрент
      Скачать бесплатно Знак смерти
      Знак смерти скачать торрент
      Знак смерти смотреть онлайн
      Cкачать фильм Знак смерти бесплатно
      Знак смерти скачать торрент в хорошем качестве
      Знак смерти смотреть онлайн бесплатно в хорошем качестве


      Вы не можете начинать темы
      Вы не можете отвечать на сообщения
      Вы не можете редактировать свои сообщения
      Вы не можете удалять свои сообщения
      Вы не можете голосовать в опросах
      Вы не можете прикреплять файлы к сообщениям
      Вы можете скачивать файлы