Ссылка на приватное зеркало нашего сайта всего за 1$. Внимание количество ограничено!!!

2 сезон

iTunes

1 сезон

1

iTunes

iTunes

iTunes

1 сезон

RePack

30

ИГРА 18+

pack

ВАЖНО

!!Акция!!

Alien_RageХит недели

RePack

MK11
pack

Забери бонус

RePack

jed

!!Акция!!

Alien_Rage

RePack

fifa19

RePack

Assassins Creed: Odyssey

RePack

NEED FOR SPEED™ PAYBACK

4 сезон

9 сезон

Бесстыжие 9 сезон

Все сериалы

все сериалы на PB.wtf

RePack

FAR CRY 5
  

Облачно... 2: Месть ГМО / Cloudy with a Chance of Meatballs 2 (Коуди Камерон, Крис Пирн) [2013 г., мультфильм, фантастика, фэнтези, комедия, семейный, BDRip, Профессиональный (полное дублирование)] pb.wtf

Облачно... 2: Месть ГМО через торрент pb.wtf

Размер: 1.96 GB | Добавлен: 6 лет 8 мес. назад | Торрент скачан:1082 раза
Скачать  

14-02-2014 10:15 Облачно... 2: Месть ГМО Скачать торрент  

Облачно... 2: Месть ГМО
Cloudy with a Chance of Meatballs 2

Год выпуска: 2013
Страна: USA
Жанр: мультфильм, фантастика, фэнтези, комедия, семейный,
Продолжительность: 95 мин. / 01:34:49
Тип релиза: Лицензия
Перевод: Профессиональный (полное дублирование)
Субтитры: Русские (форсированные (Srt)), Английские (Srt)

Режиссер: Коуди Камерон Крис Пирн
Продюссер: Кирк Бодифелт, Фил Лорд, Пэм Мэрсден
Сценарий: Эрика Ривинойя, Джон Фрэнсис Дейли, Джонатан М. Голдштейн

Бюджет: $78 000 000
Сборы в США: $119 275 862
Сборы в России: $11 705 375
Сборы в мире: $260 975 862

Премьера в мире: 26 сентября 2013
Релиз на DVD: 11 февраля 2014, «Columbia/Sony»
Релиз на Blu-ray: 11 февраля 2014, «Columbia/Sony»

IMDB 6.50 (22 391)


В ролях: ..., Игорь Угольников,

Описание: Все жители острова Поплавок покинули родной дом после событий предыдущего мультфильма. Главный герой Флинт Локвуд теперь работает в компании The Live Corp на своего кумира Честера. Но ему придется оставить свой пост когда он узнает, что его печально-известная машина все ещё работает и производит на свет опасных гибридов. Флинту предстоит ещё раз спасти мир и не дать коварной машине распространить громадную еду по всему миру.

Доп. информация: Вместо Мистера Ти Эрла озвучил Терри Крюс. Мистеру Ти предлагали озвучить этого персонажа в сиквеле, но он отказался. Большинство движений и мимика этого персонажа были взяты с экранного образа Терри Крюса.

Качество: BDRip
Формат: AVI
Видео кодек: XviD
Аудио кодек: AC3
Видео: 720x304 (2.37:1), 23.976 fps, XviD build 65 ~1804 kbps avg, 0.34 bit/pixel
Аудио#1: 48 kHz, AC3 Dolby Digital, 3/2 (L,C,R,l,r) + LFE ch, ~384 kbps - Rus
Аудио#2: 48 kHz, AC3 Dolby Digital, 3/2 (L,C,R,l,r) + LFE ch, ~384 kbps - Ukr (Отдельным файлом)
Аудио#3: 48 kHz, AC3 Dolby Digital, 3/2 (L,C,R,l,r) + LFE ch, ~384 kbps - Eng (Отдельным файлом)
скриншот  скриншот  скриншот  скриншот  скриншот  скриншот  

Format : AVI
Format/Info : Audio Video Interleave
File size : 1.46 GiB
Duration : 1h 34mn
Overall bit rate : 2 198 Kbps
Writing application : VirtualDubMod 1.5.10.3 | www.virtualdub-fr.org || (build 2550/release)
Writing library : VirtualDubMod build 2550/release

Video
ID : 0
Format : MPEG-4 Visual
Format profile : Advanced Simple@L5
Format settings, BVOP : 2
Format settings, QPel : No
Format settings, GMC : No warppoints
Format settings, Matrix : Custom
Codec ID : XVID
Codec ID/Hint : XviD
Duration : 1h 34mn
Bit rate : 1 805 Kbps
Width : 720 pixels
Height : 304 pixels
Display aspect ratio : 2.35:1
Frame rate : 23.976 fps
Color space : YUV
Chroma subsampling : 4:2:0
Bit depth : 8 bits
Scan type : Progressive
Compression mode : Lossy
Bits/(Pixel*Frame) : 0.344
Stream size : 1.20 GiB (82%)
Writing library : XviD 65

Audio
ID : 1
Format : AC-3
Format/Info : Audio Coding 3
Mode extension : CM (complete main)
Format settings, Endianness : Big
Codec ID : 2000
Duration : 1h 34mn
Bit rate mode : Constant
Bit rate : 384 Kbps
Channel count : 6 channels
Channel positions : Front: L C R, Side: L R, LFE
Sampling rate : 48.0 KHz
Bit depth : 16 bits
Compression mode : Lossy
Stream size : 260 MiB (17%)
Alignment : Split accross interleaves
Interleave, duration : 42 ms (1.00 video frame)
Interleave, preload duration : 500 ms


Облачно... 2: Месть ГМО скачать торрент


pb.wtf



Скачать Облачно... 2: Месть ГМО через торрент http://pic.kartinco.top/images/6/5qamm.jpg Скачать фильм Облачно... 2: Месть ГМО через торрент бесплантно в хорошем качестве Описание: Все жители острова Поплавок покинули родной дом после событий предыдущего мультфильма. Главный герой Флинт Локвуд теперь работает ... 9.9 10 17
Info! Золотая раздача, скачанное не засчитывается.
Торрент: Зарегистрирован [2014-02-14 10:15] · скачан: 1 082 раз
Статус: √ проверено
Размер: 1.96 GB
Как cкачать? Как скачать Облачно... 2: Месть ГМО через торрент | qTorrent

% Раздел Тема Автор DL S | L
Зарубежные Мультфильмы (BDRip 1080p, 720p, Blu-ray, BD-Remux) [ 5.16 GB ] Облачно... 2: Месть ГМО / Cloudy with a Chance of Meatballs 2 [2013 мультфильм BDRip 1080p HEVC ()] Мичман37 Скачать
1 | 0
3D Мультфильмы [ 9.36 GB ] Облачно... 2: Месть ГМО в 3Д / Cloudy with a Chance of Meatballs 2 3D [2013 Мультфильм BDrip 1080p]Full OverUnder / Вертикальная стереопара serega768 Скачать
1 | 0
Зарубежные Мультфильмы (DVD) [ 6.26 GB ] Облачно... 2: Месть ГМО / Cloudy with a Chance of Meatballs 2 [2013 мультфильм DVD9] R5 voovaz Скачать
1 | 0

28-11-2019 20:33  

Отключить всю рекламу на сайте

    Дорогой пользователь! Огромная просьба, поблагодарите релизера, оцените раздачу и оставьте свои комментарий, если Вы скачали Облачно... 2: Месть ГМО через торрент бесплатно! Внесите свою лепту в развитие PiratBit!
    Комментировать посты могут только пользователи прошедшие не сложную регистрацию
    Показать сообщения:    

    Облачно... 2: Месть ГМО через торрент
    Скачать бесплатно Облачно... 2: Месть ГМО
    Облачно... 2: Месть ГМО скачать торрент
    Облачно... 2: Месть ГМО смотреть онлайн
    Cкачать фильм Облачно... 2: Месть ГМО бесплатно
    Облачно... 2: Месть ГМО скачать торрент в хорошем качестве
    Облачно... 2: Месть ГМО смотреть онлайн бесплатно в хорошем качестве


    Вы не можете начинать темы
    Вы не можете отвечать на сообщения
    Вы не можете редактировать свои сообщения
    Вы не можете удалять свои сообщения
    Вы не можете голосовать в опросах
    Вы не можете прикреплять файлы к сообщениям
    Вы можете скачивать файлы