MEGA SALE -50% FORZA HORIZON 4 ULTIMATE+ВСЕ DLC+ОНЛАЙН всего за 599р. 299 руб. (супер цена). Внимание количество ограничено!!!

iTunes

1+1

iTunes

мы

iTunes

1

iTunes

Чернобыль

iTunes

Ральф против интернета

Лицензия

ПШазам

Лицензия

Игра престолов

Лицензия

30
pack

ВАЖНО

!!Акция!!

Alien_RageХит недели

RePack

Resident Evil 21

ИГРА 18+

pack

RePack

Metro:Exodus

!!Акция!!

Alien_Rage

RePack

fifa19

RePack

Assassins Creed: Odyssey

RePack

NEED FOR SPEED™ PAYBACK

3 сезон

9 сезон

Бесстыжие 9 сезон

Все сериалы

все сериалы на PB.wtf

RePack

FAR CRY 5
Ребята, катастрофически не хватает 7730р. для оплаты серверов за АВГУСТ (всвязи с блокировками трафик упал в 3 раза), 1-2р., выручайте.
  

Подмена / Switch (Джей Сун / Jay Sun) [2013, Китай, боевик, HDRip],Любительский (двухголосый)[den904, DeadSno] pb.wtf

Подмена через торрент pb.wtf

Размер: 1.46 GB | Добавлен: 5 лет 7 мес. назад | Торрент скачан:610 раз
Скачать  

14-02-2014 13:54 Подмена Скачать торрент  

Подмена / Life of Crime


  • Год выпуска: 2013
  • Страна: Китай
  • Жанр: боевик, триллер, мелодрама, криминал

  • Продолжительность: 02:02:24
  • Перевод: Любительский (двухголосый)[den904, DeadSno]

  • Субтитры: Нет
  • Режиссер:Джей Сун / Jay Sun
  • В ролях:Энди Лау, Линь Чилин, Чжан Цзинчу, Пол Филип Кларк, Омар Бин Хайдер, Тяньци Ши, Гаова Сыцинь, Тун Давэй
    • Описание:
      В поисках древнего китайского свитка, китайский агент сражается против японской мафии и британских наемников.
      • Качество:HDRip
      • Формат:AVI
      • Видео кодек: XviD
      • Аудио кодек:MP3
      • Видео: XviD, 720x304 (2.35:1), 1510 kbps, 24 fps, 0,288 bpp
      • Аудио: MP3 / 2.0 / 48 kHz / 192 kbps /


      Код:

      General
      Complete name                            : D:ТорентыPodmena.2013.L2.HDRip.1400MB..avi
      Format                                   : AVI
      Format/Info                              : Audio Video Interleave
      File size                                : 1.46 GiB
      Duration                                 : 2h 2mn
      Overall bit rate                         : 1 712 Kbps
      Writing application                      : VirtualDubMod 1.5.10.2 (build 2540/release)
      Writing library                          : VirtualDubMod build 2540/release

      Video
      ID                                       : 0
      Format                                   : MPEG-4 Visual
      Format profile                           : Advanced Simple@L5
      Format settings, BVOP                    : 1
      Format settings, QPel                    : No
      Format settings, GMC                     : No warppoints
      Format settings, Matrix                  : Custom
      Codec ID                                 : XVID
      Codec ID/Hint                            : XviD
      Duration                                 : 2h 2mn
      Bit rate                                 : 1 510 Kbps
      Width                                    : 720 pixels
      Height                                   : 304 pixels
      Display aspect ratio                     : 2.35:1
      Frame rate                               : 24.000 fps
      Color space                              : YUV
      Chroma subsampling                       : 4:2:0
      Bit depth                                : 8 bits
      Scan type                                : Progressive
      Compression mode                         : Lossy
      Bits/(Pixel*Frame)                       : 0.288
      Stream size                              : 1.29 GiB (88%)
      Writing library                          : XviD 73

      Audio
      ID                                       : 1
      Format                                   : MPEG Audio
      Format version                           : Version 1
      Format profile                           : Layer 3
      Mode                                     : Joint stereo
      Codec ID                                 : 55
      Codec ID/Hint                            : MP3
      Duration                                 : 2h 2mn
      Bit rate mode                            : Constant
      Bit rate                                 : 192 Kbps
      Channel(s)                               : 2 channels
      Sampling rate                            : 48.0 KHz
      Compression mode                         : Lossy
      Stream size                              : 168 MiB (11%)
      Alignment                                : Aligned on interleaves
      Interleave, duration                     : 42 ms (1.00 video frame)
      Interleave, preload duration             : 504 ms


      Скриншоты:

      Трейлеры к фильмам [2014]


      © Оформление by Ravenpb.wtf



  • Скачать Подмена через торрент http://i4.imageban.ru/out/2014/02/14/ebd6c8670ce30efb56e1753b1182758f.png Скачать фильм Подмена через торрент бесплантно в хорошем качестве Описание: В поисках древнего китайского свитка, китайский агент сражается против японской мафии и британских ... 9.4 10 24
    Info! Золотая раздача, скачанное не засчитывается.
    Торрент: Зарегистрирован [2014-02-14 13:54] · скачан: 610 раз
    Статус: √ проверено
    Размер: 1.46 GB
    Как cкачать? Как скачать Подмена через торрент | qTorrent

    % Раздел Тема Автор DL S | L
    Фильмы (WEB-DL 720p, 1080p) [ 6.08 GB ] Подмена / Кара небесная / Switch [1991 WEB-DLRip 720p от KORSAR] Dub + 3xMVO + 2xAVO filbi1976 Скачать
    5 | 0
    Фильмы 2011 [ 1.37 GB ] Подмена / Switch [ 2011 HDRip ] MVO [НТВ Ворон Скачать
    1 | 0
    Фильмы 2011 [ 2.18 GB ] Подмена / Switch [2011 BDRip-AVC] L2 + Original + Sub potroks Скачать
    1 | 0
    Фильмы 2011 [ 1.4 GB ] Подмена / Switch [2011 HDRip VO] MrKuzj Скачать
    1 | 0


    Последний раз редактировалось: Ворон (2014-02-14 15:37), всего редактировалось 3 раз(а)


    >> Регистрируемся здесь <<






    Отзывы и комментарии о схеме читаем и пишем здесь: ---> Отзывы и комментарии о схеме

    Новые благодарочки в телеграм довольных пользователей:
    скриншот   скриншот   скриншот   скриншот   скриншот

    14-02-2014 15:03 Подмена Скачать торрент  

    Дженнифер Энистон, Марк Бун Джуниор, Кевин Кэннон и Джули Е. Дэвис это четыре китайца с обложки? pb.wtf



    14-03-2014 16:43 Подмена Скачать торрент  

    А в другом переводе нет этого фильма? Пистец просто. Как с такой дикцией эта тёлка полезла в озвучку? Обломала весь просмотр. Удалил только из-за неё. Сначала у логопеда пролечиться надо................pb.wtf



      Дорогой пользователь! Огромная просьба, поблагодарите релизера, оцените раздачу и оставьте свои комментарий, если Вы скачали Подмена через торрент бесплатно! Внесите свою лепту в развитие PiratBit!
      Комментировать посты могут только пользователи прошедшие не сложную регистрацию
      Показать сообщения:    

      Подмена через торрент
      Скачать бесплатно Подмена
      Подмена скачать торрент
      Подмена смотреть онлайн
      Cкачать фильм Подмена бесплатно
      Подмена скачать торрент в хорошем качестве
      Подмена смотреть онлайн бесплатно в хорошем качестве


      Вы не можете начинать темы
      Вы не можете отвечать на сообщения
      Вы не можете редактировать свои сообщения
      Вы не можете удалять свои сообщения
      Вы не можете голосовать в опросах
      Вы не можете прикреплять файлы к сообщениям
      Вы можете скачивать файлы