новый адрес
Ссылка на приватное зеркало всего за 1$. Внимание количество ограничено!!!

iTunes

1+1

iTunes

мы

iTunes

1

iTunes

Чернобыль

iTunes

Ральф против интернета

Лицензия

ПШазам

Лицензия

Оно 2

Лицензия

30
pack

Вам бонус

ВАЖНО

!!Акция!!

Alien_RageХит недели

RePack

Resident Evil 21

ИГРА 18+

pack

RePack

jed

!!Акция!!

Alien_Rage

RePack

fifa19

RePack

Assassins Creed: Odyssey

RePack

NEED FOR SPEED™ PAYBACK

3 сезон

9 сезон

Бесстыжие 9 сезон

Все сериалы

все сериалы на PB.wtf

RePack

FAR CRY 5
Ребята, катастрофически не хватает 1900р. для оплаты серверов за Октябрь (всвязи с блокировками трафик упал в 3 раза), 1-2р., выручайте.
  

И на камнях растут деревья (Кнут Андерсен, Станислав Ростоцкий) [1985 г., Исторический, драма, приключения, DVDRip] pb.wtf

И на камнях растут деревья через торрент pb.wtf

Размер: 1.46 GB | Добавлен: 5 лет 9 мес. назад | Торрент скачан:58 раз
Скачать  

14-02-2014 14:11 И на камнях растут деревья Скачать торрент  

И на камнях растут деревья
Год выпуска: 1985
Страна: СССРНорвегия
Жанр: Исторический, драма, приключения
Продолжительность: 01:03:55 + 01:13:49

Режиссер: Кнут Андерсен Станислав Ростоцкий
Сценарий: Александр Александров, Станислав Ростоцкий, Геннадий Шумский

Премьера в мире: 5 сентября 1985





В ролях: Александр Тимошкин, Петронелла Баркер, Тор Стокке, Торгейр Фонилид, Джон Андерсен, Лизе Фьелдстад, Виктор Шульгин, Михаил Глузский, Василий Кравцов, Вера Панасенкова...

Описание: Славянский юноша Кукша, попавший в плен к викингам, за мужество и отвагу получает имя Эйнар Счастливый. Начинается новый период в его жизни, полный приключений и обещаемого викингами счастья. Но единственное его желание — вернуться домой…

Качество: DVDRip
Формат: AVI
Видео кодек: XviD
Аудио кодек: AC3
Видео: Xvid 688x432, 25.00fps, 1 312 Kbps
Аудио: Dolby AC3, 48000Hz, 2 channels, 192kbps
Релиз от: Captain_Max





General
Complete name : D:14 02 2014И на камнях растут деревья_1,46И на камнях растут деревья_1,46_1с.avi
Format : AVI
Format/Info : Audio Video Interleave
File size : 692 MiB
Duration : 1h 3mn
Overall bit rate : 1 514 Kbps
Writing application : VirtualDubModRus 1.5.10.2 (build 2540/release)
Writing library : VirtualDubMod build 2540/release

Video
ID : 0
Format : MPEG-4 Visual
Format profile : Advanced Simple@L5
Format settings, BVOP : 2
Format settings, QPel : No
Format settings, GMC : No warppoints
Format settings, Matrix : Custom
Codec ID : XVID
Codec ID/Hint : XviD
Duration : 1h 3mn
Bit rate : 1 312 Kbps
Width : 688 pixels
Height : 432 pixels
Display aspect ratio : 1.593
Frame rate : 25.000 fps
Color space : YUV
Chroma subsampling : 4:2:0
Bit depth : 8 bits
Scan type : Progressive
Compression mode : Lossy
Bits/(Pixel*Frame) : 0.177
Stream size : 600 MiB (87%)
Writing library : XviD 64

Audio
ID : 1
Format : AC-3
Format/Info : Audio Coding 3
Mode extension : CM (complete main)
Codec ID : 2000
Duration : 1h 3mn
Bit rate mode : Constant
Bit rate : 192 Kbps
Channel(s) : 2 channels
Channel positions : Front: L R
Sampling rate : 48.0 KHz
Bit depth : 16 bits
Compression mode : Lossy
Stream size : 87.8 MiB (13%)
Alignment : Aligned on interleaves
Interleave, duration : 40 ms (1.00 video frame)
Interleave, preload duration : 512 ms

pb.wtf



Скачать И на камнях растут деревья через торрент http://pic.kartinco.top/images/6/fv262.jpg Скачать фильм И на камнях растут деревья через торрент бесплантно в хорошем качестве Описание: Славянский юноша Кукша, попавший в плен к викингам, за мужество и отвагу получает имя Эйнар Счастливый. Начинается новый период в ... 9.9 10 7
Info! Золотая раздача, скачанное не засчитывается.
Торрент: Зарегистрирован [2014-02-14 14:11] · скачан: 58 раз
Статус: √ проверено
Размер: 1.46 GB
Как cкачать? Как скачать И на камнях растут деревья через торрент | qTorrent

14-02-2014 16:40 И на камнях растут деревья Скачать торрент  

В свое время фильм был ШЕДЕВР.pb.wtf



    Дорогой пользователь! Огромная просьба, поблагодарите релизера, оцените раздачу и оставьте свои комментарий, если Вы скачали И на камнях растут деревья через торрент бесплатно! Внесите свою лепту в развитие PiratBit!
    Комментировать посты могут только пользователи прошедшие не сложную регистрацию
    Показать сообщения:    

    И на камнях растут деревья через торрент
    Скачать бесплатно И на камнях растут деревья
    И на камнях растут деревья скачать торрент
    И на камнях растут деревья смотреть онлайн
    Cкачать фильм И на камнях растут деревья бесплатно
    И на камнях растут деревья скачать торрент в хорошем качестве
    И на камнях растут деревья смотреть онлайн бесплатно в хорошем качестве


    Вы не можете начинать темы
    Вы не можете отвечать на сообщения
    Вы не можете редактировать свои сообщения
    Вы не можете удалять свои сообщения
    Вы не можете голосовать в опросах
    Вы не можете прикреплять файлы к сообщениям
    Вы можете скачивать файлы