2 сезон

iTunes

MVO

1

2 сезон

iTunes

iTunes

1 сезон

RePack

30

Ultimate

ВАЖНО

ИГРА 18+

pack

RePack

MK11
pack

Легкие деньги

RePack

jed

RePack

fifa19

RePack

RDR2

RePack

NEED FOR SPEED™ PAYBACK

4 сезон

9 сезон

Бесстыжие 9 сезон

Все сериалы

все сериалы на PB.wtf

RePack

FAR CRY 5

Anonymous, добрый день, мы не успеваем собрать деньги на оплату серверов за декабрь и январь, помогите нам пожалуйста в это трудное время. В качестве благодарности мы отключим Вам всю рекламу на сайте (укажите свой ник в строку Ваше имя)!

×
  
Magnet ссылка

Тор 2: Царство тьмы в 3Д / Thor: The Dark World 3D (Aлaн Teйлоp / Аlаn Таylor) [2013, Фэнтези, Боевик, Приключения, BDrip, 1080p] OverUnder / Вертикальная стереопара pb.wtf

Тор 2: Царство тьмы в 3Д через торрент pb.wtf

Размер: 9.13 GB | Добавлен: 6 лет 11 мес. назад | Торрент скачан:1087 раз
Скачать  

14-02-2014 14:45 Тор 2: Царство тьмы в 3Д Скачать торрент  

Тор 2: Царство тьмы / Thor: The Dark World

Год выпуска: 2013
Страна: США
Студия: Marvel Studios
Жанр: Фэнтези, Боевик, Приключения
Продолжительность: 01:52:03

Перевод: Профессиональный дублированный (Лицензия)
Русские субтитры: есть
Режиссер на русском: Алан Тейлор
Режиссер на английском: Alan Taylor
В ролях: Крис Хемсворт, Натали Портман, Том Хиддлстон, Энтони Хопкинс, Джейми Александер, Рэй Стивенсон, Кэт Деннингс, Идрис Эльба, Стеллан Скарсгард, Рене Руссо, Кристофер Экклстон, Стэн Ли

Описание: Продолжение приключений одного из членов команды Мстителей, скандинавского бога Тора, которому на этот раз в одиночку предстоит защитить Землю и все девять миров от нашествия неизвестного врага.
Могучему Тору предстоит вновь сразиться за восстановление порядка в галактике, встретившись лицом к лицу с древней инопланетной расой, ведомой злодеем Малекитом, жаждущим установить в девяти мирах Влacть тьмы. Столкнувшись с врагом, более могущественным чем сам Один и всё воинство Асгарда, Тор должен собрать силы для решающей битвы. Его ждёт опасное путешествие и долгожданная встреча со своей земной возлюбленной Джейн Фостер. Сможет ли Тор рискнуть самым дорогим, чтобы не дать тьме воцариться на просторах вселенной?

Сэмпл: http://www.sendspace.com/file/eiygon

Качество: BDrip1080p
Контейнер: MKV
Формат 3D: OverUnder / Вертикальная стереопара
Порядок ракурсов: левый ракурс первый
Видео кодек: x264
Аудио кодек: AC3
Видео: AVC / High@L5.0 / 23,976 fps / 1920х1600 / 10,2 Мбит/сек
Аудио: Русский / AC3 / 48 KHz / 2 ch / 640 Кбит/сек (Лицензия)
Аудио 2: Английский / AC3 / 48 KHz / 5.1 ch / 640 Кбит/сек
Субтитры:Русские Форсированные (на эльфийскую речь) (включены по умолчанию)

Релиз группы: ВНИМАНИЕ ! На встроенных ТВ-плеерах работать не будет!!!

Железные плееры на которых воспроизводятся полные стереопары:Popcorn C-200 , Dune HD Smart D1 , Dune HD DUO , Dune HD Smart H1 , Dune HD Smart B1 , Dune HD Max , Dune HD TV-303D , Dune HD Base 3D , Dune HD TV-301

Общее
Уникальный идентификатор : 233454559083101786994129952764225273694 (0xAFA1B66CE679208482C9C7BCB3C23F5E)
Полное имя : E:закачкиThor The Dark World.Rip by SeRoGa00.mkv
Формат : Matroska
Версия формата : Version 2
Размер файла : 9,13 Гбайт
Продолжительность : 1 ч. 52 м.
Общий поток : 11,7 Мбит/сек
Дата кодирования : UTC 2014-02-14 13:52:41
Программа кодирования : mkvmerge v3.4.0 ('Rapunzel') сборка от May 15 2010 09:38:20
Библиотека кодирования : libebml v0.8.0 + libmatroska v0.9.0

Видео
Идентификатор : 1
Формат : AVC
Формат/Информация : Advanced Video Codec
Профиль формата : High@L5.0
Параметр CABAC формата : Да
Параметр ReFrames формата : 4 кадра
Идентификатор кодека : V_MPEG4/ISO/AVC
Продолжительность : 1 ч. 52 м.
Битрейт : 10,2 Мбит/сек
Ширина : 1920 пикселей
Высота : 1600 пикселей
Соотношение сторон : 1,200
Частота кадров : 23,976 кадра/сек
Цветовое пространство : YUV
Субдискретизация насыщенности : 4:2:0
Битовая глубина : 8 бит
Тип развёртки : Прогрессивная
Бит/(Пиксели*Кадры) : 0.138
Размер потока : 7,95 Гбайт (87%)
Заголовок : Rip by SeRoGa00
Библиотека кодирования : x264 core 138 r2356 a1d3d17
Настройки программы : cabac=1 / ref=4 / deblock=1:-3:-3 / analyse=0x3:0x113 / me=umh / subme=9 / psy=1 / psy_rd=1.00:0.15 / mixed_ref=1 / me_range=24 / chroma_me=1 / trellis=2 / 8x8dct=1 / cqm=0 / deadzone=21,11 / fast_pskip=1 / chroma_qp_offset=-3 / threads=9 / lookahead_threads=1 / sliced_threads=0 / nr=0 / decimate=1 / interlaced=0 / bluray_compat=0 / constrained_intra=0 / bframes=8 / b_pyramid=2 / b_adapt=2 / b_bias=0 / direct=3 / weightb=1 / open_gop=0 / weightp=2 / keyint=250 / keyint_min=23 / scenecut=40 / intra_refresh=0 / rc_lookahead=60 / rc=crf / mbtree=1 / crf=18.0 / qcomp=0.60 / qpmin=10 / qpmax=69 / qpstep=4 / vbv_maxrate=40000 / vbv_bufsize=40000 / crf_max=0.0 / nal_hrd=none / ip_ratio=1.40 / aq=1:1.00
Язык : English

Аудио #1
Идентификатор : 2
Формат : AC-3
Формат/Информация : Audio Coding 3
Расширение режима : CM (complete main)
Идентификатор кодека : A_AC3
Продолжительность : 1 ч. 52 м.
Вид битрейта : Постоянный
Битрейт : 640 Кбит/сек
Каналы : 6 каналов
Расположение каналов : Front: L C R, Side: L R, LFE
Частота : 48,0 КГц
Битовая глубина : 16 бит
Метод сжатия : С потерями
Размер потока : 513 Мбайт (5%)
Язык : Russian

Аудио #2
Идентификатор : 3
Формат : AC-3
Формат/Информация : Audio Coding 3
Расширение режима : CM (complete main)
Идентификатор кодека : A_AC3
Продолжительность : 1 ч. 52 м.
Вид битрейта : Постоянный
Битрейт : 640 Кбит/сек
Каналы : 6 каналов
Расположение каналов : Front: L C R, Side: L R, LFE
Частота : 48,0 КГц
Битовая глубина : 16 бит
Метод сжатия : С потерями
Размер потока : 513 Мбайт (5%)
Язык : English

Текст
Идентификатор : 4
Формат : UTF-8
Идентификатор кодека : S_TEXT/UTF8
Идентификатор кодека/Информация : UTF-8 Plain Text
pb.wtf



Скачать Тор 2: Царство тьмы в 3Д через торрент http://s005.radikal.ru/i209/1402/fe/14d3e995aa83.jpg Скачать фильм Тор 2: Царство тьмы в 3Д через торрент бесплантно в хорошем качестве Описание: Продолжение приключений одного из членов команды Мстителей, скандинавского бога Тора, которому на этот раз в одиночку предстоит ... 9.6 10 27
Info! Золотая раздача, скачанное не засчитывается.
Торрент: Зарегистрирован [2014-02-14 14:45] · скачан: 1 087 раз
Статус: √ проверено
Размер: 9.13 GB
Как cкачать? Как скачать Тор 2: Царство тьмы в 3Д через торрент | UTorrent

28-11-2019 20:33  

Отключить всю рекламу на сайте

14-02-2014 17:10 Тор 2: Царство тьмы в 3Д Скачать торрент  

дайте скорости плизpb.wtf



19-02-2014 09:46 Тор 2: Царство тьмы в 3Д Скачать торрент  

не правильное соотношение сторон
у меня телек выдал сообщение не воспроизводимый форматpb.wtf



19-02-2014 19:06 Тор 2: Царство тьмы в 3Д Скачать торрент  

sveta8pav2 писал(а):

не правильное соотношение сторон
у меня телек выдал сообщение не воспроизводимый формат

ВНИМАНИЕ ! На встроенных ТВ-плеерах работать не будет!!! Будет работать только на плеерах перечисленых выше и с компа по HDMI.pb.wtf



    Дорогой пользователь! Огромная просьба, поблагодарите релизера, оцените раздачу и оставьте свои комментарий, если Вы скачали Тор 2: Царство тьмы в 3Д через торрент бесплатно! Внесите свою лепту в развитие PiratBit!
    Комментировать посты могут только пользователи прошедшие не сложную регистрацию
    Показать сообщения:    

    Тор 2: Царство тьмы в 3Д через торрент
    Скачать бесплатно Тор 2: Царство тьмы в 3Д
    Тор 2: Царство тьмы в 3Д скачать торрент
    Тор 2: Царство тьмы в 3Д смотреть онлайн
    Cкачать фильм Тор 2: Царство тьмы в 3Д бесплатно
    Тор 2: Царство тьмы в 3Д скачать торрент в хорошем качестве
    Тор 2: Царство тьмы в 3Д смотреть онлайн бесплатно в хорошем качестве


    Вы не можете начинать темы
    Вы не можете отвечать на сообщения
    Вы не можете редактировать свои сообщения
    Вы не можете удалять свои сообщения
    Вы не можете голосовать в опросах
    Вы не можете прикреплять файлы к сообщениям
    Вы можете скачивать файлы