Ссылка на приватное зеркало нашего сайта всего за 1$. Внимание количество ограничено!!!

2 сезон

iTunes

1 сезон

1

iTunes

iTunes

iTunes

1 сезон

RePack

30

ИГРА 18+

pack

ВАЖНО

!!Акция!!

Alien_RageХит недели

RePack

MK11
pack

Забери бонус

RePack

jed

!!Акция!!

Alien_Rage

RePack

fifa19

RePack

Assassins Creed: Odyssey

RePack

NEED FOR SPEED™ PAYBACK

4 сезон

9 сезон

Бесстыжие 9 сезон

Все сериалы

все сериалы на PB.wtf

RePack

FAR CRY 5
  

Робокоп / RoboCop (Пол Верховен / Paul Verhoeven) [1987, США, фантастика, боевик, криминал, BDRip 720p] [Unrated Director's Cut] 3x MVO (Superbit, Киномания) + AVO (Живов) + VO (Поздняков) + Sub Rus, Eng + Original Eng pb.wtf

Робокоп через торрент pb.wtf

Размер: 10.93 GB | Добавлен: 6 лет 8 мес. назад | Торрент скачан:75 раз
Скачать  

15-02-2014 16:33 Робокоп Скачать торрент  

Робокоп / RoboCop

«Part man. Part machine. All cop. The future of law enforcement»

  • Год выпуска: 1987
  • Страна: США
  • Жанр: фантастика, боевик, криминал

  • Продолжительность: 01:43:16
  • Перевод: Профессиональный (многоголосый, закадровый)

  • Субтитры: Russian (captions), Russian, English (SDH)
  • Режиссер:Пол Верховен / Paul Verhoeven
  • В ролях:Питер Уэллер (Officer Alex J. Murphy / RoboCop), Нэнси Аллен (Officer Anne Lewis), Дэн О’Херлихи (The Old Man), Ронни Кокс (Dick Jones), Кертвуд Смит (Clarence J. Boddicker), Мигель Феррер (Bob Morton), Роберт Дукуй (Sergeant Warren Reed), Рэй Уайз (Leon C. Nash), Фелтон Перри (Johnson), Пол МакКрейн (Emil M. Antonowsky), Джесси Д. Гойнс (Joe P. Cox), Дель Замора (Kaplan)
    • Описание:
      После гибели одного из лучших полицейских врачи-экспериментаторы создают из него неуязвимого киборга Робокопа, который в одиночку борется с бандой преступников. Однако прочная броня не спасает Робокопа от мучительных, обрывочных воспоминаний о прошлом: он постоянно видит кошмарные сны, в которых погибает от рук жестоких преступников. Теперь он не только ждёт правосудия,... но и жаждет мести!

    Бюджет:$13 000 000 / Мировая премьера:17 июля 1987
    • Качество:BDRip 720p
    • Формат:MKV
    • Видео кодек: AVC
    • Аудио кодек:AC3/ DTS
    • Видео: AVC, 1280x694 (16:9), 10866 kbps, 23,976 fps, 0,510 bpp
    • Аудио №1: русский / DTS / 5.1 / 48 kHz / 755 kbps / 24 bit || (многоголосый закадровый)
      Аудио №2: русский / DTS / 5.1 / 48 kHz / 755 kbps / 24 bit || (Superbit)
      Аудио №3: русский / AC3 / 5.1 / 48 kHz / 384 kbps / 16 bit || (Киномания)
      Аудио №4: русский / AC3 / 5.1 / 48 kHz / 384 kbps / 16 bit || (Ю. Живов)
      Аудио №5: русский / AC3 / 2.0 / 48 kHz / 192 kbps / 16 bit || (К. Поздняков)
      Аудио №6: английский / DTS / 5.1 / 48 kHz / 1510 kbps / 24 bit


    Код:

    General
    Unique ID                                : 236235035063974904764230709531875479090 (0xB1B93679B010BBA884538306E72C0E32)
    Complete name                            : D:ТорентыRoboCopRoboCop.1987.Director's.Cut.720p.BluRay.5xRus.Eng.HDCLUB.mkv
    Format                                   : Matroska
    Format version                           : Version 4 / Version 2
    File size                                : 10.9 GiB
    Duration                                 : 1h 43mn
    Overall bit rate                         : 15.1 Mbps
    Movie name                               : RoboCop (1987) Director's Cut - Release for HDCLUB
    Encoded date                             : UTC 2014-02-13 06:45:48
    Writing application                      : mkvmerge v6.6.0 ('The Edge Of The In Between') built on Dec  1 2013 17:55:00
    Writing library                          : libebml v1.3.0 + libmatroska v1.4.1
    Attachment                               : Yes

    Video
    ID                                       : 1
    Format                                   : AVC
    Format/Info                              : Advanced Video Codec
    Format profile                           : High@L4.1
    Format settings, CABAC                   : Yes
    Format settings, ReFrames                : 9 frames
    Codec ID                                 : V_MPEG4/ISO/AVC
    Duration                                 : 1h 43mn
    Bit rate                                 : 10.9 Mbps
    Width                                    : 1 280 pixels
    Height                                   : 694 pixels
    Display aspect ratio                     : 16:9
    Frame rate                               : 23.976 fps
    Color space                              : YUV
    Chroma subsampling                       : 4:2:0
    Bit depth                                : 8 bits
    Scan type                                : Progressive
    Bits/(Pixel*Frame)                       : 0.510
    Stream size                              : 7.84 GiB (72%)
    Title                                    : Release for HDCLUB
    Writing library                          : x264 core 142 r2389 956c8d8
    Encoding settings                        : cabac=1 / ref=9 / deblock=1:-3:-3 / analyse=0x3:0x133 / me=tesa / subme=11 / psy=1 / psy_rd=1.15:0.00 / mixed_ref=1 / me_range=16 / chroma_me=1 / trellis=2 / 8x8dct=1 / cqm=0 / deadzone=21,11 / fast_pskip=0 / chroma_qp_offset=-2 / threads=12 / lookahead_threads=2 / sliced_threads=0 / nr=0 / decimate=1 / interlaced=0 / bluray_compat=0 / constrained_intra=0 / bframes=7 / b_pyramid=2 / b_adapt=2 / b_bias=0 / direct=3 / weightb=1 / open_gop=0 / weightp=2 / keyint=250 / keyint_min=23 / scenecut=40 / intra_refresh=0 / rc=crf / mbtree=0 / crf=18.2 / qcomp=0.75 / qpmin=0 / qpmax=69 / qpstep=4 / ip_ratio=1.40 / pb_ratio=1.30 / aq=1:0.60
    Language                                 : English
    Default                                  : Yes
    Forced                                   : No
    Matrix coefficients                      : BT.709-5, BT.1361, IEC 61966-2-4 709, SMPTE RP177

    Audio #1
    ID                                       : 2
    Format                                   : DTS
    Format/Info                              : Digital Theater Systems
    Codec ID                                 : A_DTS
    Duration                                 : 1h 43mn
    Bit rate mode                            : Constant
    Bit rate                                 : 755 Kbps
    Channel(s)                               : 6 channels
    Channel positions                        : Front: L C R, Side: L R, LFE
    Sampling rate                            : 48.0 KHz
    Bit depth                                : 24 bits
    Compression mode                         : Lossy
    Stream size                              : 557 MiB (5%)
    Title                                    : MVO, Blu-ray CEE
    Language                                 : Russian
    Default                                  : Yes
    Forced                                   : No

    Audio #2
    ID                                       : 3
    Format                                   : DTS
    Format/Info                              : Digital Theater Systems
    Codec ID                                 : A_DTS
    Duration                                 : 1h 43mn
    Bit rate mode                            : Constant
    Bit rate                                 : 755 Kbps
    Channel(s)                               : 6 channels
    Channel positions                        : Front: L C R, Side: L R, LFE
    Sampling rate                            : 48.0 KHz
    Bit depth                                : 24 bits
    Compression mode                         : Lossy
    Stream size                              : 557 MiB (5%)
    Title                                    : MVO, Superbit
    Language                                 : Russian
    Default                                  : No
    Forced                                   : No

    Audio #3
    ID                                       : 4
    Format                                   : AC-3
    Format/Info                              : Audio Coding 3
    Mode extension                           : CM (complete main)
    Codec ID                                 : A_AC3
    Duration                                 : 1h 43mn
    Bit rate mode                            : Constant
    Bit rate                                 : 384 Kbps
    Channel(s)                               : 6 channels
    Channel positions                        : Front: L C R, Side: L R, LFE
    Sampling rate                            : 48.0 KHz
    Bit depth                                : 16 bits
    Compression mode                         : Lossy
    Stream size                              : 284 MiB (3%)
    Title                                    : MVO, Киномания
    Language                                 : Russian
    Default                                  : No
    Forced                                   : No

    Audio #4
    ID                                       : 5
    Format                                   : AC-3
    Format/Info                              : Audio Coding 3
    Mode extension                           : CM (complete main)
    Codec ID                                 : A_AC3
    Duration                                 : 1h 43mn
    Bit rate mode                            : Constant
    Bit rate                                 : 384 Kbps
    Channel(s)                               : 6 channels
    Channel positions                        : Front: L C R, Side: L R, LFE
    Sampling rate                            : 48.0 KHz
    Bit depth                                : 16 bits
    Compression mode                         : Lossy
    Stream size                              : 284 MiB (3%)
    Title                                    : VO, Живов
    Language                                 : Russian
    Default                                  : No
    Forced                                   : No

    Audio #5
    ID                                       : 6
    Format                                   : AC-3
    Format/Info                              : Audio Coding 3
    Mode extension                           : CM (complete main)
    Codec ID                                 : A_AC3
    Duration                                 : 1h 43mn
    Bit rate mode                            : Constant
    Bit rate                                 : 192 Kbps
    Channel(s)                               : 2 channels
    Channel positions                        : Front: L R
    Sampling rate                            : 48.0 KHz
    Bit depth                                : 16 bits
    Compression mode                         : Lossy
    Stream size                              : 142 MiB (1%)
    Title                                    : VO, Поздняков
    Language                                 : Russian
    Default                                  : No
    Forced                                   : No

    Audio #6
    ID                                       : 7
    Format                                   : DTS
    Format/Info                              : Digital Theater Systems
    Codec ID                                 : A_DTS
    Duration                                 : 1h 43mn
    Bit rate mode                            : Constant
    Bit rate                                 : 1 510 Kbps
    Channel(s)                               : 6 channels
    Channel positions                        : Front: L C R, Side: L R, LFE
    Sampling rate                            : 48.0 KHz
    Bit depth                                : 24 bits
    Compression mode                         : Lossy
    Stream size                              : 1.09 GiB (10%)
    Language                                 : English
    Default                                  : No
    Forced                                   : No

    Text #1
    ID                                       : 8
    Format                                   : UTF-8
    Codec ID                                 : S_TEXT/UTF8
    Codec ID/Info                            : UTF-8 Plain Text
    Title                                    : captions
    Language                                 : Portuguese
    Default                                  : Yes
    Forced                                   : No

    Text #2
    ID                                       : 9
    Format                                   : UTF-8
    Codec ID                                 : S_TEXT/UTF8
    Codec ID/Info                            : UTF-8 Plain Text
    Language                                 : Russian
    Default                                  : No
    Forced                                   : No

    Text #3
    ID                                       : 10
    Format                                   : UTF-8
    Codec ID                                 : S_TEXT/UTF8
    Codec ID/Info                            : UTF-8 Plain Text
    Language                                 : English
    Default                                  : No
    Forced                                   : No

    Menu
    00:00:00.000                             : en:Main Title/New Guy
    00:06:45.113                             : en:ED-209
    00:14:07.555                             : en:Hot Pursuit
    00:17:32.551                             : en:Mutilation of Murphy
    00:26:40.515                             : en:New Kinda Cop
    00:34:28.024                             : en:On the Streets
    00:40:32.805                             : en:Ocp Showdown
    00:45:15.337                             : en:Bad Memories
    00:49:46.650                             : en:Self-Discovery
    00:57:48.131                             : en:Blast From the Past
    01:01:41.239                             : en:Killer Caught
    01:08:25.184                             : en:Battle Bots
    01:15:59.888                             : en:Un-Masked
    01:22:46.544                             : en:Once and for All
    01:33:53.961                             : en:Fired
    01:37:04.902                             : en:End Credits


    Скриншоты:

    Трейлеры к фильмам [2014]


    © Оформление by Ravenpb.wtf



  • Скачать Робокоп через торрент http://i3.imageban.ru/out/2014/02/15/705810488ec6d6fab5e7ee68b090ff79.jpg Скачать фильм Робокоп через торрент бесплантно в хорошем качестве Описание:После гибели одного из лучших полицейских врачи-экспериментаторы создают из него неуязвимого киборга Робокопа, который в одиночку ... 10 10 9
    Info! Золотая раздача, скачанное не засчитывается.
    Торрент: Зарегистрирован [2014-02-15 16:33] · скачан: 75 раз
    Статус: √ проверено
    Размер: 10.93 GB
    Как cкачать? Как скачать Робокоп через торрент | qTorrent

    28-11-2019 20:33  

    Отключить всю рекламу на сайте

    15-02-2014 16:55 Робокоп Скачать торрент  

    И все-таки этот лучше нового Робокопа.pb.wtf



    15-02-2014 17:51 Робокоп Скачать торрент  

    ТОЧНО yespb.wtf



    15-02-2014 18:56 Робокоп Скачать торрент  

    Нового ещё не видел,но этот для меня будет всегда шедевром!!!pb.wtf



    15-02-2014 19:06 Робокоп Скачать торрент  

    если бы в то время были бы спец эффекты как сейчай то этому мильму равных бы не былоpb.wtf



    16-02-2014 15:33 Робокоп Скачать торрент  

    Смотрел новый фильм, честно, на один раз! этот же готов снова всю трилогию просмотреть заново!pb.wtf



      Дорогой пользователь! Огромная просьба, поблагодарите релизера, оцените раздачу и оставьте свои комментарий, если Вы скачали Робокоп через торрент бесплатно! Внесите свою лепту в развитие PiratBit!
      Комментировать посты могут только пользователи прошедшие не сложную регистрацию
      Показать сообщения:    

      Робокоп через торрент
      Скачать бесплатно Робокоп
      Робокоп скачать торрент
      Робокоп смотреть онлайн
      Cкачать фильм Робокоп бесплатно
      Робокоп скачать торрент в хорошем качестве
      Робокоп смотреть онлайн бесплатно в хорошем качестве


      Вы не можете начинать темы
      Вы не можете отвечать на сообщения
      Вы не можете редактировать свои сообщения
      Вы не можете удалять свои сообщения
      Вы не можете голосовать в опросах
      Вы не можете прикреплять файлы к сообщениям
      Вы можете скачивать файлы