1 сезон

3 сезон

iTunes

1

iTunes

MVO

iTunes

13

1 сезон

RePack

30

Deluxe

pack

Лицензия

ВАЖНО

ИГРА 18+

pack

RePack

MK11

RePack

jed

RePack

fifa19

RePack

RDR2

RePack

NEED FOR SPEED™ PAYBACK

4 сезон

9 сезон

Бесстыжие 9 сезон

Все сериалы

все сериалы на PB.wtf

RePack

FAR CRY 5

Anonymous, добрый день, мы катастрофически не успеваем собрать деньги на оплату серверов, помогите нам пожалуйста 5,10,15р., для нас важна любая помощь . В качестве благодарности мы отключим Вам всю рекламу на сайте (укажите свой ник в строку Ваше имя)!

×
  
Magnet ссылка

Небоскреб смерти / Tower Block (Джеймс Нанн, Ронни Томпсон) [2012 г., триллер, BDRip, Профессиональный (многоголосый, закадровый) R5 + Оригинал отдельно ] pb.wtf

Небоскреб смерти через торрент pb.wtf

Размер: 1.45 GB | Добавлен: 7 лет 5 мес. назад | Торрент скачан:99 раз
Скачать  

15-02-2014 16:52 Небоскреб смерти Скачать торрент  

Небоскреб смерти / Tower Block
Год выпуска: 2012
Страна: Великобритания
Жанр: триллер,
Продолжительность: 01:30:06
Перевод: Профессиональный (многоголосый, закадровый) R5 + Оригинал отдельно
Тип релиза:
Субтитры: Отдельно Русские на http:

Режиссер: Джеймс Нанн Ронни Томпсон
Продюссер: Джеймс Харрис, Марк Лэйн, Ронни Томпсон,
Сценарий: Джеймс Моран

Премьера в мире: 21 августа 2012




В ролях: Шеридан Смит, Джек О’Коннелл, Ральф Браун, Рассел Тови, Джилл Бейкер, Лоуи Бэтли, Стивен Кри, Набил Елухаби, Кристофер Фулфорд, Джули Грэм,


Спустя год после того как жители высотки N31 стали свидетелями убийства, их начинает отстреливать снайпер. А тех, кому посчастливилось уцелеть, он стравливает в битве за выживание.


Качество: BDRip (источник: HQCLUB / BDRemux / 1080p)
Формат: AVI
Видео кодек: XviD
Аудио кодек: AC3
Видео: 704x400 (16:9), 23.976 fps, XviD build 65 ~1848 kbps avg, 0.27 bit/pixel
Аудио#1: 48 kHz, AC3 Dolby Digital, 3/2 (L,C,R,l,r) + LFE ch, ~448 kbps avg (RUS) R5
Аудио#2: 48 kHz, AC3 Dolby Digital, 3/2 (L,C,R,l,r) + LFE ch, ~448 kbps avg (ENG) ORIGINAL отдельно на http





General
Complete name : Neboskreb.smerti.2012.RUS.BDRip.XviD.AC3.avi
Format : AVI
Format/Info : Audio Video Interleave
File size : 1.45 GiB
Duration : 1h 30mn
Overall bit rate : 2 306 Kbps
Movie name : Neboskreb.smerti.2012.RUS.BDRip.XviD.AC3.
Director : Joker
Writing application : VirtualDubMod 1.5.10.2 (build 2542/release)
Copyright : HQCLUB
Comment : 15.02.2014
Video #0
ID : 0
Format : MPEG-4 Visual
Format profile : Advanced Simple@L5
Format settings, BVOP : 1
Format settings, QPel : No
Format settings, GMC : No warppoints
Format settings, Matrix : Custom
Codec ID : XVID
Codec ID/Hint : XviD
Duration : 1h 30mn
Bit rate : 1 849 Kbps
Width : 704 pixels
Height : 400 pixels
Display aspect ratio : 16:9
Frame rate : 23.976 fps
Color space : YUV
Chroma subsampling : 4:2:0
Bit depth : 8 bits
Scan type : Progressive
Compression mode : Lossy
Bits/(Pixel*Frame) : 0.274
Stream size : 1.16 GiB (80%)
Writing library : XviD 73
Audio #1
ID : 1
Format : AC-3
Format/Info : Audio Coding 3
Mode extension : CM (complete main)
Format settings, Endianness : Big
Codec ID : 2000
Duration : 1h 30mn
Bit rate mode : Constant
Bit rate : 448 Kbps
Channel count : 6 channels
Channel positions : Front: L C R, Side: L R, LFE
Sampling rate : 48.0 KHz
Bit depth : 16 bits
Compression mode : Lossy
Stream size : 289 MiB (19%)
Alignment : Split accross interleaves
Interleave, duration : 42 ms (1.00 video frame)
Interleave, preload duration : 500 ms


Небоскреб смерти скачать торрент



скриншот   скриншот   скриншот   скриншот   скриншот  

pb.wtf



Скачать Небоскреб смерти через торрент https://pic1.kartinco.top/images/41/7tjyr.jpg Скачать фильм Небоскреб смерти через торрент бесплантно в хорошем качестве В ролях: Шеридан Смит, Джек О’Коннелл, Ральф Браун, Рассел Тови, Джилл Бейкер, Лоуи Бэтли, Стивен Кри, Набил Елухаби, Кристофер Фулфорд, ... 9.5 10 10
Info! Золотая раздача, скачанное не засчитывается.
Торрент: Зарегистрирован [2014-02-15 16:52] · скачан: 99 раз
Статус: √ проверено
Размер: 1.45 GB
Как cкачать? Как скачать Небоскреб смерти через торрент | UTorrent



Последний раз редактировалось: MrKuzj (2014-02-15 17:10), всего редактировалось 3 раз(а)

28-11-2019 20:33  

Отключить всю рекламу на сайте

15-02-2014 17:17 Небоскреб смерти Скачать торрент  

MrKuzj писал(а):

Субтитры: Русские

Цитата:

8.1 Если имеются. Следует указать язык и вид субтитров: вшитые или отдельный файл.

http://pb.wtf/topic/58128/
pb.wtf



    Дорогой пользователь! Огромная просьба, поблагодарите релизера, оцените раздачу и оставьте свои комментарий, если Вы скачали Небоскреб смерти через торрент бесплатно! Внесите свою лепту в развитие PiratBit!
    Комментировать посты могут только пользователи прошедшие не сложную регистрацию
    Показать сообщения:    

    Небоскреб смерти через торрент
    Скачать бесплатно Небоскреб смерти
    Небоскреб смерти скачать торрент
    Небоскреб смерти смотреть онлайн
    Cкачать фильм Небоскреб смерти бесплатно
    Небоскреб смерти скачать торрент в хорошем качестве
    Небоскреб смерти смотреть онлайн бесплатно в хорошем качестве


    Вы не можете начинать темы
    Вы не можете отвечать на сообщения
    Вы не можете редактировать свои сообщения
    Вы не можете удалять свои сообщения
    Вы не можете голосовать в опросах
    Вы не можете прикреплять файлы к сообщениям
    Вы можете скачивать файлы