Ссылка на приватное зеркало нашего сайта всего за 1$. Внимание количество ограничено!!!

2 сезон

iTunes

1 сезон

1

2 сезон

2 сезон

iTunes

1 сезон

RePack

30

Ultimate

ВАЖНО

ИГРА 18+

pack

RePack

MK11
pack

Забери бонус

RePack

jed

!!Акция!!

Alien_Rage

RePack

fifa19

RePack

Assassins Creed: Odyssey

RePack

NEED FOR SPEED™ PAYBACK

4 сезон

9 сезон

Бесстыжие 9 сезон

Все сериалы

все сериалы на PB.wtf

RePack

FAR CRY 5
  

Город Хищниц / Cougar Town / Сезон: 5 / Серии 1-13 из 13 [2014 г., комедия, ситком, WEB-DLRip MVO LostFilm] pb.wtf

Город Хищниц через торрент pb.wtf

Размер: 4.1 GB | Добавлен: 6 лет 7 мес. назад | Торрент скачан:69 раз
Скачать  

15-02-2014 16:54 Город Хищниц Скачать торрент  


"Город Хищниц / Cougar Town"
Информация о фильме:

✦ Год выхода: 2014
✦ Страна: США
✦ Жанр: Комедия
✦ Продолжительность: ~ 00:21:00 серия
✦ Перевод: Профессиональный (многоголосый, закадровый)
- LostFilm

✦ Режиссер: Билл Лоуренс, Кевин Бигель

✦ В ролях: Кортни Кокс (Джулс), Дэн Берд (Трэвис), Брайан Ван Холт (Бобби), Бизи Филиппс (Лори), Криста Миллер (Элли), Иэн Гомес (Энди), Джош Хопкинс (Грэйсон)


Описание фильма:
Сериал Cougar Town рассказывает о недавно разведенной 40-летней Джулс Кобб и ее сыне-подростке Трэвисе, живущих в небольшом городке в штате Флорида. Этот город можно охарактеризовать одним словом – Cougars. Это и название популярной футбольной команды местной школы, и … немалое количество разведенных женщин среднего возраста, ищущих парней помоложе, чтобы скрасить свой досуг. Джулс не хочет стать похожей на них, но после прошедшего развода и своих немолодых лет она хочет большего для своей личной жизни. С помощью лучшей подруги Элли и коллеги по работе Лори она пытается вспомнить, как же это – ходить на свидания и знакомиться с мужчинами.





Информация о файле:

✦ Качество: WEB-DLRip
✦ Формат: AVI
✦ Видео кодек: XviD
✦ Аудио кодек: mp3
✦ Видео: MPEG4, XviD, 720x400 (16:9), 23.976 fps, 1 915 Kbps (0.277 bit/pixel)
✦ Аудио RUS: MP3 , 48.0 KHz, 2 ch, 192 Kbps, VBR
✦ Субтитры: нет
Когда раздача ведётся путём добавления новых серий, при каждом добавлении создётся новый торрент. Чтобы начать докачку новой серии, пользователям необходимо сделать следующее:
(1) остановить скачивание,
(2) удалить старый торрент у себя из клиента (старые серии удалять не надо),
(3) скачать новый торрент и запустить его у себя в клиенте вместо старого, при этом указать клиенту путь в старую папку, куда и должно происходить скачивание новых серий.
Ваш клиент при этом должен произвести хеширование (проверку) старой папки (если не производит сам - помогите ему сделать это), и будет докачивать только те серии, которых у вас ещё нет. Старые серии при этом не удаляются, а продолжают раздаваться!
Eсли вы уже удалили старые серии, то предотвратить повторную закачку старых серий можно, отжав галочку в соответсвующих местах при запуске нового торрента. По возможности, желательно не удалять старые серии как можно дольше, чтобы релизёр не столько продолжал раздавать старые серии, а смог сконцентрироваться на новых.

Общее
Полное имя : F:PC ShareCougar.Town.(S05).LostCougar.Town.S05E01.rus.LostFilm.TV.avi
Формат : AVI
Формат/Информация : Audio Video Interleave
Размер файла : 321 Мбайт
Продолжительность : 21 м.
Режим общего битрейта : Переменный
Общий поток : 2116 Кбит/сек
Программа кодирования : Nandub v1.0rc2
Библиотека кодирования : Nandub build 1853/release

Видео
Идентификатор : 0
Формат : MPEG-4 Visual
Профиль формата : Simple@L3
Параметр BVOP формата : Нет
Параметр QPel формата : Нет
Параметр GMC формата : Без точки перехода
Параметр матрицы формата : Default (H.263)
Идентификатор кодека : XVID
Идентификатор кодека/Подсказка : XviD
Продолжительность : 21 м.
Битрейт : 1915 Кбит/сек
Ширина : 720 пикселей
Высота : 400 пикселей
Соотношение сторон : 16:9
Частота кадров : 23,976 кадра/сек
Цветовое пространство : YUV
Субдискретизация насыщенности : 4:2:0
Битовая глубина : 8 бит
Тип развёртки : Прогрессивная
Метод сжатия : С потерями
Бит/(Пиксели*Кадры) : 0.277
Размер потока : 290 Мбайт (91%)
Библиотека кодирования : XviD 1.2.1 (UTC 2008-12-04)

Аудио
Идентификатор : 1
Формат : MPEG Audio
Версия формата : Version 1
Профиль формата : Layer 3
Режим : Joint stereo
Расширение режима : MS Stereo
Идентификатор кодека : 55
Идентификатор кодека/Подсказка : MP3
Продолжительность : 21 м.
Вид битрейта : Переменный
Битрейт : 192 Кбит/сек
Каналы : 2 канала
Частота : 48,0 КГц
Метод сжатия : С потерями
Размер потока : 28,5 Мбайт (9%)
Выравнивание : Соединение по промежуткам
Продолжительность промежутка : 24 мс. (0,58 видеокадр)
Время предзагрузки промежутка : 506 мс.
Библиотека кодирования : LAME3.97b
Настройки программы : -m j -V 4 -q 3 -lowpass 18.6 --abr 192
pb.wtf



Скачать Город Хищниц через торрент http://i59.fastpic.ru/big/2014/0201/32/86ad568722e86df864ec4ba0cf8d5c32.png Скачать фильм Город Хищниц через торрент бесплантно в хорошем качестве Описание фильма:Сериал Cougar Town рассказывает о недавно разведенной 40-летней Джулс Кобб и ее сыне-подростке Трэвисе, живущих в небольшом ... 8.3 10 4
Info! Золотая раздача, скачанное не засчитывается.
Торрент: Зарегистрирован [2014-04-08 16:16] · скачан: 69 раз
Статус: √ проверено
Размер: 4.1 GB
Как cкачать? Как скачать Город Хищниц через торрент | qTorrent

28-11-2019 20:33  

Отключить всю рекламу на сайте

    Дорогой пользователь! Огромная просьба, поблагодарите релизера, оцените раздачу и оставьте свои комментарий, если Вы скачали Город Хищниц через торрент бесплатно! Внесите свою лепту в развитие PiratBit!
    Комментировать посты могут только пользователи прошедшие не сложную регистрацию
    Показать сообщения:    

    Город Хищниц через торрент
    Скачать бесплатно Город Хищниц
    Город Хищниц скачать торрент
    Город Хищниц смотреть онлайн
    Cкачать фильм Город Хищниц бесплатно
    Город Хищниц скачать торрент в хорошем качестве
    Город Хищниц смотреть онлайн бесплатно в хорошем качестве


    Вы не можете начинать темы
    Вы не можете отвечать на сообщения
    Вы не можете редактировать свои сообщения
    Вы не можете удалять свои сообщения
    Вы не можете голосовать в опросах
    Вы не можете прикреплять файлы к сообщениям
    Вы можете скачивать файлы