новый адрес
Мега распродажа FORZA HORIZON 4 ULTIMATE+ВСЕ DLC+ОНЛАЙН всего за 499р. 349 руб. (супер цена). Внимание количество ограничено!!!

iTunes

1+1

iTunes

мы

iTunes

1

iTunes

Чернобыль

iTunes

Ральф против интернета

Лицензия

ПШазам

Лицензия

Игра престолов

Лицензия

30
pack

ВАЖНО

!!Акция!!

Alien_RageХит недели

RePack

Resident Evil 21

ИГРА 18+

pack

RePack

Metro:Exodus

!!Акция!!

Alien_Rage

RePack

fifa19

RePack

Assassins Creed: Odyssey

RePack

NEED FOR SPEED™ PAYBACK

3 сезон

9 сезон

Бесстыжие 9 сезон

Все сериалы

все сериалы на PB.wtf

RePack

FAR CRY 5
Ребята, катастрофически не хватает 1900р. для оплаты серверов за Октябрь (всвязи с блокировками трафик упал в 3 раза), 1-2р., выручайте.
  

Перед рассветом (Ярополк Лапшин) [1989 г., Боевик, драма, военный, DVDRip] pb.wtf

Перед рассветом через торрент pb.wtf

Размер: 1.37 GB | Добавлен: 5 лет 9 мес. назад | Торрент скачан:80 раз
Скачать  

15-02-2014 18:44 Перед рассветом Скачать торрент  

Перед рассветом
Год выпуска: 1989
Страна: СССР Свердловская киностудия
Жанр: Боевик, драма, военный
Продолжительность: 01:20:18

Режиссер: Ярополк Лапшин
Сценарий: Геннадий Бокарев




В ролях: Николай Бадьев, Евгений Миронов, Александр Панкратов-Чёрный, Валерий Рыжаков, Раиса Рязанова, Константин Степанков, Вера Альховская, Олег Корчиков, Вячеслав Кириличев, Игорь Головин

Описание: Жаркое лето 1941 года. Небольшая станция в прифронтовой полосе. В один из вагонов погружают группу уголовников. Не успевает поезд проехать и несколько километров, как подвергается налету авиации и атаке десанта. После боя из всего состава в живых остаются только трое: молодой лейтенант НКВД, «вор в законе» и репрессированный генерал. Они бегут в лес, подальше от разбитого поезда и преследующих их немцев. В такой ситуации заключенные, казалось, могли бы считать себя свободными, но лейтенант думает иначе и намерен доставить их к месту назначения.

Качество: DVDRip
Формат: AVI
Видео кодек: DivX 5
Аудио кодек: AC3
Видео: DivX 5, 720x544, 25.00fps, 2 236 Kbps
Аудио: Dolby AC3, 48000Hz, stereo, 192kbps
Релиз от: wasta





General
Complete name : D:15 02 2014Pered.rassvetom.1989.DivX.DVDRip.avi
Format : AVI
Format/Info : Audio Video Interleave
File size : 1.37 GiB
Duration : 1h 20mn
Overall bit rate : 2 435 Kbps
Writing application : VirtualDubMod 1.5.4.1 (build 2178/release)
Writing library : VirtualDubMod build 2178/release

Video
ID : 0
Format : MPEG-4 Visual
Format settings, BVOP : 1
Format settings, QPel : No
Format settings, GMC : No warppoints
Format settings, Matrix : Default (H.263)
Muxing mode : Packed bitstream
Codec ID : DX50
Codec ID/Hint : DivX 5
Duration : 1h 20mn
Bit rate : 2 236 Kbps
Width : 720 pixels
Height : 544 pixels
Display aspect ratio : 4:3
Frame rate : 25.000 fps
Color space : YUV
Chroma subsampling : 4:2:0
Bit depth : 8 bits
Scan type : Progressive
Compression mode : Lossy
Bits/(Pixel*Frame) : 0.228
Stream size : 1.25 GiB (92%)
Writing library : DivX 6.7.0 (UTC 2007-09-20)

Audio
ID : 1
Format : AC-3
Format/Info : Audio Coding 3
Mode extension : CM (complete main)
Codec ID : 2000
Duration : 1h 20mn
Bit rate mode : Constant
Bit rate : 192 Kbps
Channel(s) : 2 channels
Channel positions : Front: L R
Sampling rate : 48.0 KHz
Bit depth : 16 bits
Compression mode : Lossy
Delay relative to video : 15ms
Stream size : 110 MiB (8%)
Alignment : Split accross interleaves
Interleave, duration : 96 ms (2.40 video frames)
Interleave, preload duration : 96 ms
Language : Russian

pb.wtf



Скачать Перед рассветом через торрент http://pic.kartinco.top/images/6/w21gy.jpg Скачать фильм Перед рассветом через торрент бесплантно в хорошем качестве Описание: Жаркое лето 1941 года. Небольшая станция в прифронтовой полосе. В один из вагонов погружают группу уголовников. Не успевает поезд ... 9.9 10 12
Info! Золотая раздача, скачанное не засчитывается.
Торрент: Зарегистрирован [2014-02-15 18:44] · скачан: 80 раз
Статус: √ проверено
Размер: 1.37 GB
Как cкачать? Как скачать Перед рассветом через торрент | qTorrent

% Раздел Тема Автор DL S | L
Металл (mp3) [ 83 MB ] Сознание - Перед рассветом 2018 / MP3 / 320 kbps / Symphonic Metal bober100 Скачать
1 | 0
Кино СССР [ 1.09 GB ] Перед рассветом [1989 СССР военный DVDRip-AVC от AVP Studio] AVP Studio Скачать
1 | 0
Кино СССР [ 744 MB ] Перед рассветом [1989 СССР военный DVDRip от AVP Studio] AVP Studio Скачать
1 | 0
Кино СССР [ 1.09 GB ] Перед рассветом [1989 СССР военный DVDRip от AVP Studio] AVP Studio Скачать
1 | 0
T Фильмы 2011 [ 1.37 GB ] Перед рассветом / Avant l'aube [2011 HDRip] makarevich Скачать
1 | 0


>> Регистрируемся здесь <<






Отзывы и комментарии о схеме читаем и пишем здесь: ---> Отзывы и комментарии о схеме

Новые благодарочки в телеграм довольных пользователей:
скриншот   скриншот   скриншот   скриншот   скриншот
    Дорогой пользователь! Огромная просьба, поблагодарите релизера, оцените раздачу и оставьте свои комментарий, если Вы скачали Перед рассветом через торрент бесплатно! Внесите свою лепту в развитие PiratBit!
    Комментировать посты могут только пользователи прошедшие не сложную регистрацию
    Показать сообщения:    

    Перед рассветом через торрент
    Скачать бесплатно Перед рассветом
    Перед рассветом скачать торрент
    Перед рассветом смотреть онлайн
    Cкачать фильм Перед рассветом бесплатно
    Перед рассветом скачать торрент в хорошем качестве
    Перед рассветом смотреть онлайн бесплатно в хорошем качестве


    Вы не можете начинать темы
    Вы не можете отвечать на сообщения
    Вы не можете редактировать свои сообщения
    Вы не можете удалять свои сообщения
    Вы не можете голосовать в опросах
    Вы не можете прикреплять файлы к сообщениям
    Вы можете скачивать файлы