2 сезон

iTunes

MVO

1

2 сезон

iTunes

iTunes

1 сезон

RePack

30

Ultimate

ВАЖНО

ИГРА 18+

pack

RePack

MK11
pack

Легкие деньги

RePack

jed

RePack

fifa19

RePack

RDR2

RePack

NEED FOR SPEED™ PAYBACK

4 сезон

9 сезон

Бесстыжие 9 сезон

Все сериалы

все сериалы на PB.wtf

RePack

FAR CRY 5

Anonymous, добрый день, мы не успеваем собрать деньги на оплату серверов за декабрь и январь, помогите нам пожалуйста в это трудное время. В качестве благодарности мы отключим Вам всю рекламу на сайте (укажите свой ник в строку Ваше имя)!

×
  
Magnet ссылка

Адвокат дьявола / The Devil's Advocate [UNRATED] (Тейлор Хэкфорд) [1997, триллер, драма, детектив, HDRip-AVC] DUB [R5] от R.G. PiratFilms pb.wtf

Адвокат дьявола через торрент pb.wtf

Раздают: 2 [ 0 KB/s ]
Размер: 2.18 GB | Добавлен: 6 лет 11 мес. назад | Торрент скачан:437 раз
Скачать  

17-02-2014 02:26 Адвокат дьявола Скачать торрент  

Адвокат дьявола / The Devil's Advocate
«У зла свой путь к победе»



Год выпуска: 1997
Страна: США, Германия
Жанр: триллер, драма, детектив
Продолжительность: 02:23:55
Перевод: Профессиональный (Дубляж) [R5]
Субтитры: Русские (форсированные)

Режиссер: Тейлор Хэкфорд

В ролях: Киану Ривз, Аль Пачино, Шарлиз Терон, Джеффри Джонс, Джудит Айви, Конни Нильсен, Крэйг Т. Нельсон, Тамара Тюни, Рубен Сантьяго-Хадсон, Дебра Монк

Описание: В Нью-Йорк по приглашению главы крупного юридического концерна прибывает Кевин Ломакс, молодой адвокат. До этого он был известен тем, что защищал исключительно негодяев и притом не проиграл ни одного процесса. На новом месте работы он вполне счастлив, он живет в роскошной квартире с любящей женой, его окружают интересные люди…

|

Качество: HDRip-AVC (Rip by Phoenix)
Исходник: BDRip 1080p
Формат: MKV
Видео кодек: H.264
Аудио кодек: AC3
Видео: H.264, 1024*426, 23,976 кадр/сек, 1780 Кбит/сек, 0.170 Бит/(Пиксели*Кадры)
Аудио: AC3, 384 Кбит/сек, 6 каналов, 48,0 КГц

Код:

x264 [info]: frame I:1941  Avg QP:15.42  size: 56684  PSNR Mean Y:47.26 U:48.85 V:50.62 Avg:47.90 Global:47.64
x264 [info]: frame P:45894 Avg QP:18.59  size: 18049  PSNR Mean Y:45.16 U:46.97 V:48.98 Avg:45.86 Global:45.49
x264 [info]: frame B:159214 Avg QP:20.47  size:  6173  PSNR Mean Y:44.52 U:46.79 V:49.02 Avg:45.33 Global:44.89

Код:

Общее
Уникальный идентификатор         : 189671256793018661979091409250539032250 (0x8EB15AF54017C9CC8D54BED1941C4EBA)
Полное имя                       : G:VideoRip by PhoenixThe Devils Advocate [UNRATED].mkv
Формат                           : Matroska
Размер файла                     : 2,18 Гбайт
Продолжительность                : 2 ч. 23 м.
Общий поток                      : 2165 Кбит/сек
Дата кодирования                 : UTC 2014-02-17 02:46:21
Программа кодирования            : mkvmerge v6.5.0 ('Isn't she lovely') built on Oct 20 2013 12:50:05
Библиотека кодирования           : libebml v1.3.0 + libmatroska v1.4.1

Видео
Идентификатор                    : 1
Формат                           : AVC
Формат/Информация                : Advanced Video Codec
Профиль формата                  : High@L4.1
Параметр CABAC формата           : Да
Параметр ReFrames формата        : 11 кадры
Идентификатор кодека             : V_MPEG4/ISO/AVC
Продолжительность                : 2 ч. 23 м.
Битрейт                          : 1780 Кбит/сек
Ширина                           : 1024 пикс.
Высота                           : 426 пикс.
Соотношение сторон               : 2,40:1
Частота кадров                   : 23,976 кадр/сек
Цветовое пространство            : YUV
Подвыборка цветности             : 4:2:0
Битовая глубина                  : 8 бит
Тип развёртки                    : Прогрессивная
Бит/(Пиксели*Кадры)              : 0.170
Размер потока                    : 1,75 Гбайт (80%)
Заголовок                        : Rip by Phoenix
Библиотека кодирования           : x264 core 138 r2358 9e941d1
Настройки программы              : cabac=1 / ref=11 / deblock=1:3:3 / analyse=0x3:0x113 / me=umh / subme=9 / psy=1 / psy_rd=1.00:0.00 / mixed_ref=1 / me_range=32 / chroma_me=1 / trellis=2 / 8x8dct=1 / cqm=0 / deadzone=21,11 / fast_pskip=1 / chroma_qp_offset=-2 / threads=4 / lookahead_threads=1 / sliced_threads=0 / nr=0 / decimate=1 / interlaced=0 / bluray_compat=0 / constrained_intra=0 / bframes=8 / b_pyramid=2 / b_adapt=2 / b_bias=0 / direct=1 / weightb=1 / open_gop=0 / weightp=2 / keyint=240 / keyint_min=23 / scenecut=40 / intra_refresh=0 / rc_lookahead=40 / rc=2pass / mbtree=1 / bitrate=1780 / ratetol=1.0 / qcomp=0.75 / qpmin=0 / qpmax=69 / qpstep=4 / cplxblur=20.0 / qblur=0.5 / ip_ratio=1.40 / aq=1:1.00
Язык                             : English

Аудио
Идентификатор                    : 2
Формат                           : AC-3
Формат/Информация                : Audio Coding 3
Расширение режима                : CM (complete main)
Идентификатор кодека             : A_AC3
Продолжительность                : 2 ч. 23 м.
Вид битрейта                     : Постоянный
Битрейт                          : 384 Кбит/сек
Канал(ы)                         : 6 канала(ов)
Расположение каналов             : Front: L C R, Side: L R, LFE
Частота                          : 48,0 КГц
Битовая глубина                  : 16 бит
Метод сжатия                     : С потерями
Размер потока                    : 395 Мбайт (18%)
Язык                             : Russian

Текст
Идентификатор                    : 3
Формат                           : UTF-8
Идентификатор кодека             : S_TEXT/UTF8
Идентификатор кодека/Информация  : UTF-8 Plain Text
Заголовок                        : Forced
Язык                             : Russian

pb.wtf



Скачать Адвокат дьявола через торрент https://pic.kartinco.top/images/6/2qboi.jpg Скачать фильм Адвокат дьявола через торрент бесплантно в хорошем качестве Описание: В Нью-Йорк по приглашению главы крупного юридического концерна прибывает Кевин Ломакс, молодой адвокат. До этого он был известен ... 10 10 31
Info! Золотая раздача, скачанное не засчитывается.
Торрент: Зарегистрирован [2014-02-17 02:26] · скачан: 437 раз
Статус: √ проверено
Размер: 2.18 GB
Как cкачать? Как скачать Адвокат дьявола через торрент | UTorrent

28-11-2019 20:33  

Отключить всю рекламу на сайте

17-02-2014 11:10 Адвокат дьявола Скачать торрент  

Один из самых любимых фильмов.pb.wtf



18-10-2015 15:56 Адвокат дьявола Скачать торрент  

шикарное кино))pb.wtf



02-07-2017 12:53 Адвокат дьявола Скачать торрент  

спасибо что ещё можно найти такие фильмыpb.wtf



21-07-2018 11:51 Адвокат дьявола Скачать торрент  

evgeni3014 писал(а):

спасибо что ещё можно найти такие фильмы

Всё можно найти здесь!pb.wtf



    Дорогой пользователь! Огромная просьба, поблагодарите релизера, оцените раздачу и оставьте свои комментарий, если Вы скачали Адвокат дьявола через торрент бесплатно! Внесите свою лепту в развитие PiratBit!
    Комментировать посты могут только пользователи прошедшие не сложную регистрацию
    Показать сообщения:    

    Адвокат дьявола через торрент
    Скачать бесплатно Адвокат дьявола
    Адвокат дьявола скачать торрент
    Адвокат дьявола смотреть онлайн
    Cкачать фильм Адвокат дьявола бесплатно
    Адвокат дьявола скачать торрент в хорошем качестве
    Адвокат дьявола смотреть онлайн бесплатно в хорошем качестве


    Вы не можете начинать темы
    Вы не можете отвечать на сообщения
    Вы не можете редактировать свои сообщения
    Вы не можете удалять свои сообщения
    Вы не можете голосовать в опросах
    Вы не можете прикреплять файлы к сообщениям
    Вы можете скачивать файлы