2 сезон

iTunes

MVO

1

2 сезон

iTunes

iTunes

1 сезон

RePack

30

Новинка

ВАЖНО

ИГРА 18+

pack

RePack

MK11
pack

Легкие деньги

RePack

jed

RePack

fifa19

RePack

RDR2

RePack

NEED FOR SPEED™ PAYBACK

4 сезон

9 сезон

Бесстыжие 9 сезон

Все сериалы

все сериалы на PB.wtf

RePack

FAR CRY 5

Anonymous, доброй ночи, мы не успеваем собрать деньги на оплату серверов за декабрь и январь, помогите нам пожалуйста в это трудное время. В качестве благодарности мы отключим Вам всю рекламу на сайте (укажите свой ник в строку Ваше имя)!

×
  
Magnet ссылка

Катастрофа на День независимости / Independence Daysaster (В.Д. Хоган / W.D. Hogan) [2013, Канада, фантастика, боевик, HDRip,Профессиональный (многоголосый, закадровый) pb.wtf

Катастрофа на День независимости через торрент pb.wtf

Размер: 1.37 GB | Добавлен: 6 лет 10 мес. назад | Торрент скачан:1132 раза
Скачать  

17-02-2014 11:46 Катастрофа на День независимости Скачать торрент  


Катастрофа на День независимости / Independence Daysaster

«Evil wears many faces»

  • Год выпуска:2013
  • Страна:Канада
  • Жанр: фантастика, боевик

  • Продолжительность: 01:29:48
  • Перевод: Профессиональный (многоголосый, закадровый)

  • Субтитры: Нет
  • Режиссер:В.Д. Хоган / W.D. Hogan
  • В ролях: Кэйси Дюбуа (Nick), Айэйн Белчер (Todd), Андреа Брукс (Eliza), Николас Карелла (SETI Technician), Аарон Крэвен (Phillips), Ревард Дюфрен (Secret Service Agent), Лэйн Эдвардс (Major Preston), Эмили Холмс (Celia Lehman), Майкл Копса (General Moore), Райан Мерриман (Pete Garcette), Гарвин Санфорд (Viсе-President Brubaker), Том Эверетт Скотт (Sam Garcette)
    • Описание:
      Землю атакуют инопланетяне. Сопротивление захватчикам оказывает небольшая группа энтузиастов...

    Бюджет:$1 800 000 / Мировая премьера:27 июня 2013
    • Качество:HDRip
    • Формат:AVI
    • Видео кодек: XviD
    • Аудио кодек:AC3
    • Видео: 720x400 (16:9), 1976 kbps, 23,976 fps
    • Аудио: 2.0 / 48 kHz / 192 kbps /


    Код:

    General
    Complete name                            : D:ТорентыKatastrofa.v.Denj.nezavisimosti.2013.P.HDRip.1400MB.avi
    Format                                   : AVI
    Format/Info                              : Audio Video Interleave
    File size                                : 1.37 GiB
    Duration                                 : 1h 29mn
    Overall bit rate                         : 2 178 Kbps
    Writing application                      : VirtualDubMod 1.5.10.2 (build 2540/release)
    Writing library                          : VirtualDubMod build 2540/release

    Video
    ID                                       : 0
    Format                                   : MPEG-4 Visual
    Format profile                           : Advanced Simple@L5
    Format settings, BVOP                    : 2
    Format settings, QPel                    : No
    Format settings, GMC                     : No warppoints
    Format settings, Matrix                  : Default (MPEG)
    Codec ID                                 : XVID
    Codec ID/Hint                            : XviD
    Duration                                 : 1h 29mn
    Bit rate                                 : 1 977 Kbps
    Width                                    : 720 pixels
    Height                                   : 400 pixels
    Display aspect ratio                     : 16:9
    Frame rate                               : 23.976 fps
    Color space                              : YUV
    Chroma subsampling                       : 4:2:0
    Bit depth                                : 8 bits
    Scan type                                : Progressive
    Compression mode                         : Lossy
    Bits/(Pixel*Frame)                       : 0.286
    Stream size                              : 1.24 GiB (91%)
    Writing library                          : XviD 1.2.1 (UTC 2008-12-04)

    Audio
    ID                                       : 1
    Format                                   : AC-3
    Format/Info                              : Audio Coding 3
    Mode extension                           : CM (complete main)
    Codec ID                                 : 2000
    Duration                                 : 1h 29mn
    Bit rate mode                            : Constant
    Bit rate                                 : 192 Kbps
    Channel(s)                               : 2 channels
    Channel positions                        : Front: L R
    Sampling rate                            : 48.0 KHz
    Bit depth                                : 16 bits
    Compression mode                         : Lossy
    Stream size                              : 123 MiB (9%)
    Alignment                                : Split accross interleaves
    Interleave, duration                     : 42 ms (1.00 video frame)
    Interleave, preload duration             : 500 ms

    Скриншоты:

    Трейлеры к фильмам [2014]
    © Оформление by Raven pb.wtf



  • Скачать Катастрофа на День независимости через торрент http://pic.kartinco.top/images/6/ordi9.jpg Скачать фильм Катастрофа на День независимости через торрент бесплантно в хорошем качестве Описание:Землю атакуют инопланетяне. Сопротивление захватчикам оказывает небольшая группа энтузиастов... Бюджет:$1 800 000 / Мировая ... 9.6 10 40
    Info! Золотая раздача, скачанное не засчитывается.
    Торрент: Зарегистрирован [2014-02-17 11:46] · скачан: 1 132 раз
    Статус: √ проверено
    Размер: 1.37 GB
    Как cкачать? Как скачать Катастрофа на День независимости через торрент | UTorrent

    28-11-2019 20:33  

    Отключить всю рекламу на сайте

    17-02-2014 13:07 Катастрофа на День независимости Скачать торрент  

    Оценка в кинопоиске 3.1 фильм круть наверноеpb.wtf



    17-02-2014 14:15 Катастрофа на День независимости Скачать торрент  

    lRazer писал(а):

    Оценка в кинопоиске 3.1 фильм круть наверное

    блокбастер,точноpb.wtf



    17-02-2014 15:52 Катастрофа на День независимости Скачать торрент  

    В фильме чумовые спецэффекты. Мстители отдыхают.pb.wtf



    17-02-2014 20:28 Катастрофа на День независимости Скачать торрент  

    Этот "шедевр" не имеет право на существование. Редкостное Г. :jest3:pb.wtf



    18-02-2014 06:34 Катастрофа на День независимости Скачать торрент  

    Зря выкинутые бабки на фильм..pb.wtf



    18-02-2014 15:27 Катастрофа на День независимости Скачать торрент  

    yes классpb.wtf



    18-02-2014 15:28 Катастрофа на День независимости Скачать торрент  

    yes классpb.wtf



    21-02-2014 11:39 Катастрофа на День независимости Скачать торрент  

    Колёсики с "Морского боя" ,графа убогая,сюжет-никакосовый.Терпения хватило минут на 20-ть. Унылая кака.
    За раздачу Спасибо! pb.wtf



    05-03-2014 12:56 Катастрофа на День независимости Скачать торрент  

    Спасибо за раздачу, посмотрим!!! yespb.wtf



    11-03-2014 16:10 Катастрофа на День независимости Скачать торрент  

    ни одного положительного отзыва,не буду качатьpb.wtf



    11-03-2014 17:45 Катастрофа на День независимости Скачать торрент  

    mak9824 писал(а):

    lRazer писал(а):

    Оценка в кинопоиске 3.1 фильм круть наверное

    блокбастер,точно

    pb.wtf



    14-03-2014 11:42 Катастрофа на День независимости Скачать торрент  

    ща посотрюpb.wtf



    14-03-2014 12:19 Катастрофа на День независимости Скачать торрент  

    какшка а нефильм несоветую хватила на 10мин ГОВНОpb.wtf



      Дорогой пользователь! Огромная просьба, поблагодарите релизера, оцените раздачу и оставьте свои комментарий, если Вы скачали Катастрофа на День независимости через торрент бесплатно! Внесите свою лепту в развитие PiratBit!
      Комментировать посты могут только пользователи прошедшие не сложную регистрацию
      Показать сообщения:    

      Катастрофа на День независимости через торрент
      Скачать бесплатно Катастрофа на День независимости
      Катастрофа на День независимости скачать торрент
      Катастрофа на День независимости смотреть онлайн
      Cкачать фильм Катастрофа на День независимости бесплатно
      Катастрофа на День независимости скачать торрент в хорошем качестве
      Катастрофа на День независимости смотреть онлайн бесплатно в хорошем качестве


      Вы не можете начинать темы
      Вы не можете отвечать на сообщения
      Вы не можете редактировать свои сообщения
      Вы не можете удалять свои сообщения
      Вы не можете голосовать в опросах
      Вы не можете прикреплять файлы к сообщениям
      Вы можете скачивать файлы