Ссылка на приватное зеркало нашего сайта всего за 1$. Внимание количество ограничено!!!

2 сезон

iTunes

1 сезон

1

2 сезон

2 сезон

iTunes

1 сезон

RePack

30

Новинка

ВАЖНО

ИГРА 18+

pack

RePack

MK11
pack

Забери бонус

RePack

jed

!!Акция!!

Alien_Rage

RePack

fifa19

RePack

Assassins Creed: Odyssey

RePack

NEED FOR SPEED™ PAYBACK

4 сезон

9 сезон

Бесстыжие 9 сезон

Все сериалы

все сериалы на PB.wtf

RePack

FAR CRY 5
  

Небраска / Nebraska (Александр Пэйн / Alexander Payne) [ 2013 , США , драма , BDRemux ] VO pb.wtf

Небраска через торрент pb.wtf

Размер: 29.99 GB | Добавлен: 6 лет 9 мес. назад | Торрент скачан:52 раза
Скачать  

17-02-2014 12:28 Небраска Скачать торрент  


Небраска / Nebraska
Страна: США
Жанр: драма
Год выпуска: 2013
Продолжительность: 01:54:43
Перевод: Любительский одноголосый Doctor_Joker
Субтитры: русские (Doctor_Joker)(Перевод осуществлён по просьбе сайта Переулок Переводмана.)
Режиссер: Александр Пэйн / Alexander Payne
В ролях:

Брюс Дерн (Woody Grant), Уилл Форте (David Grant), Джун Скуиб (Kate Grant), Боб Оденкёрк (Ross Grant), Стейси Кич (Ed Pegram), Мэри Луиза Уилсон (Aunt Martha), Рэнс Ховард (Uncle Ray), Тим Дрисколл (Bart), Девин Рэтрей (Cole), Анджела МакЭван (Peg Nagy), Глендора Ститт (Aunt Betty), Элизабет Мур (Aunt Flo)
Описание: Рассказ пойдет про отца-алкоголика, который выиграл миллион долларов. Он не хочет отправляться сам в долгий путь из Монтаны в Небраску, чтобы забрать свой выигрыш. Его сын, которому далеко за двадцать, не верит, что билет выигрышный, но все равно решает отправиться вместе с отцом, чтобы уберечь его от опасностей и всяких неприятностей, а также сблизиться за время путешествия.

MPAA: R - Лицам до 17 лет обязательно присутствие взрослого
Качество: BDRemux 1080p
Контейнер: MKV
Видео кодек: AVC
Аудио кодек: AC3,DTS
Видео: AVC, 1920x1080 (16:9), 34729 kbps, 23,976 fps, 0,699 bpp
Аудио №1: русский / AC3 / 3 / 48 kHz / 448 kbps / 16 bit ||
Аудио №2: английский / DTS / 3 / 48 kHz / 1510 kbps / 24 bit
Навигация по главам: есть
General
Unique ID : 214242223266771617760067167433749718591 (0xA12D8D22ECB2AA258D738C8208A0663F)
Complete name : E:BDNebraska.2013.BDRemux.1080.by.Дядя_Лёша.mkv
Format : Matroska
Format version : Version 4 / Version 2
File size : 30.0 GiB
Duration : 1h 54mn
Overall bit rate mode : Variable
Overall bit rate : 37.4 Mbps
Encoded date : UTC 2014-02-16 15:18:16
Writing application : mkvmerge v6.7.0 ('Back to the Ground') 64bit built on Jan 8 2014 15:10:52
Writing library : libebml v1.3.0 + libmatroska v1.4.1
Attachment : Yes

Video
ID : 1
Format : AVC
Format/Info : Advanced Video Codec
Format profile : High@L4.1
Format settings, CABAC : Yes
Format settings, ReFrames : 2 frames
Format settings, GOP : M=1, N=10
Codec ID : V_MPEG4/ISO/AVC
Duration : 1h 54mn
Bit rate mode : Variable
Bit rate : 34.7 Mbps
Width : 1 920 pixels
Height : 1 080 pixels
Display aspect ratio : 16:9
Frame rate mode : Constant
Frame rate : 23.976 fps
Color space : YUV
Chroma subsampling : 4:2:0
Bit depth : 8 bits
Scan type : Progressive
Bits/(Pixel*Frame) : 0.698
Stream size : 27.8 GiB (93%)
Default : Yes
Forced : No

Audio #1
ID : 2
Format : AC-3
Format/Info : Audio Coding 3
Mode extension : CM (complete main)
Format settings, Endianness : Big
Codec ID : A_AC3
Duration : 1h 54mn
Bit rate mode : Constant
Bit rate : 448 Kbps
Channel(s) : 3 channels
Channel positions : Front: L C R
Sampling rate : 48.0 KHz
Bit depth : 16 bits
Compression mode : Lossy
Stream size : 368 MiB (1%)
Title : VO Doctor_Joker
Language : Russian
Default : Yes
Forced : No

Audio #2
ID : 3
Format : DTS
Format/Info : Digital Theater Systems
Mode : 16
Format settings, Endianness : Big
Codec ID : A_DTS
Duration : 1h 54mn
Bit rate mode : Constant
Bit rate : 1 509 Kbps
Channel(s) : 3 channels
Channel positions : Front: L C R
Sampling rate : 48.0 KHz
Bit depth : 24 bits
Compression mode : Lossy
Stream size : 1.21 GiB (4%)
Title : Eng
Language : English
Default : No
Forced : No

Text
ID : 4
Format : UTF-8
Codec ID : S_TEXT/UTF8
Codec ID/Info : UTF-8 Plain Text
Title : Rus (Doctor_Joker)
Language : Russian
Default : No
Forced : No

Menu
00:00:00.000 : en:
00:06:32.600 : en:
00:13:18.380 : en:
00:18:09.630 : en:
00:25:35.534 : en:
00:31:17.083 : en:
00:37:16.901 : en:
00:46:10.601 : en:
00:51:17.365 : en:
00:55:07.846 : en:
01:02:24.449 : en:
01:08:19.178 : en:
01:13:26.318 : en:
01:21:13.952 : en:
01:27:09.933 : en:
01:32:20.117 : en:
01:39:37.805 : en:
01:48:59.032 : en:
00:01:11,071 --> 00:01:12,880
Куда направляешься?

4
00:01:14,241 --> 00:01:15,879
Эй, куда идёшь-то?

5
00:01:15,943 --> 00:01:17,684
Ты как, дружище?

6
00:01:17,744 --> 00:01:19,690
С тобой всё хорошо?
Куда путь держишь?
pb.wtf



Скачать Небраска через торрент http://i17.fastpic.ru/big/2011/0313/61/40ee5a6971f3b74b62c2f0e9ea2ffa61.gif Скачать фильм Небраска через торрент бесплантно в хорошем качестве Описание: Рассказ пойдет про отца-алкоголика, который выиграл миллион долларов. Он не хочет отправляться сам в долгий путь из Монтаны в ... 7.8 10 4
Info! Золотая раздача, скачанное не засчитывается.
Торрент: Зарегистрирован [2014-02-17 12:28] · скачан: 52 раз
Статус: √ проверено
Размер: 29.99 GB
Как cкачать? Как скачать Небраска через торрент | qTorrent

% Раздел Тема Автор DL S | L
Фильмы [HD 720p, 1080p] (Хороший звук DUB, MVO) [ 10.95 GB ] Небраска / Nebraska [2013 BDRip 1080p от _denis_100 / NNNB] MVO AVO + Original + Sub _denis_100 Скачать
1 | 0
Фильмы 2013 (Звук TS, Cam, VO, DVO) [ 1.37 GB ] Небраска / Nebraska [ 2013 HDRip ]VO GEKADOL Скачать
1 | 0

28-11-2019 20:33  

Отключить всю рекламу на сайте

    Дорогой пользователь! Огромная просьба, поблагодарите релизера, оцените раздачу и оставьте свои комментарий, если Вы скачали Небраска через торрент бесплатно! Внесите свою лепту в развитие PiratBit!
    Комментировать посты могут только пользователи прошедшие не сложную регистрацию
    Показать сообщения:    

    Небраска через торрент
    Скачать бесплатно Небраска
    Небраска скачать торрент
    Небраска смотреть онлайн
    Cкачать фильм Небраска бесплатно
    Небраска скачать торрент в хорошем качестве
    Небраска смотреть онлайн бесплатно в хорошем качестве


    Вы не можете начинать темы
    Вы не можете отвечать на сообщения
    Вы не можете редактировать свои сообщения
    Вы не можете удалять свои сообщения
    Вы не можете голосовать в опросах
    Вы не можете прикреплять файлы к сообщениям
    Вы можете скачивать файлы