Доктор Стрэндж

Лицензия

Добыча

Дубляж

Дом дракона

1 сезон

Тор

Дубляж

В эфире

Дубляж

Там, где раки поют

MVO

Властелин колец

1 сезон

Ultimate

pack

Рекомендуем

30

Пиратка

ВАЖНО

ВАЖНО

Ghostwire

Пиратка

jed

RePack

nioh2

RePack

RDR2

RePack

NEED FOR SPEED™ PAYBACK

RePack

скачать торрент

Кинопоиск HD

Острые козырьки 6 сезон

6 сезон

FAR CRY 6

RePack

скачать торрент

Лицензия

скачать торрент

MVO

1

1 сезон

скачать торрент

1 сезон

скачать торрент

Лицензия

  

Король и Шут - На краю (Live 2013) [2014 г., Punk Rock, DVD5]

Король и Шут - На краю через торрент pb.wtf

Размер: 3.89 GB | Добавлен: 8 лет 9 мес. назад | Торрент скачан:392 раза
| Скачать   

18-02-2014 07:38 Король и Шут - На краю Скачать торрент  

Король и Шут - На краю (Live 2013)
Год выпуска: 2014
Страна: Россия
Жанр: Punk Rock
Продолжительность: 01:22:51
«На краю...» — последний концертный DVD российской панк-рок-группы «Король и Шут», фильм-концерт. Записан 2 февраля 2013 года во Дворце спорта «Юбилейный» в Санкт-Петербурге на последнем сольном выступлении группы с Михаилом Горшенёвым в родном городе. Единственный релиз группы «Король и Шут», выпущенный с помощью краудфандинга. Для выхода в свет DVD поклонники коллектива собрали сумму, в три раза превысившую заявленную на портале Planeta.ru, на котором и осуществлялся сбор средств. Премьерный показ фильм-концерта состоялся 9 февраля 2014 года в клубе «Космонавт» в Санкт-Петербурге при участии музыкантов группы.
01 Исповедь вампира
02 Король и шут
03 Продавец кошмаров
04 Фокусник
05 Дурак и молния
06 Смертельный приговор
07 Священник больше ничего не скажет
08 Паника в селе
09 Похороны панка
10 Отражение
11 Хардкор по-русски
12 Смерть на балу
13 Камнем по голове
14 Тринадцатая рана
15 Шар голубой
16 Воспоминания о былой любви
17 Медведь (акустика)
18 Северный флот (акустика)
19 Ели мясо мужики
20 Марионетки
21 Счастье
22 Танец злобного гения
23 Мертвый анархист
24 Лесник
25 На краю.
Качество: DVD5
Формат: DVD Video
Видео кодек: MPEG2
Аудио кодек: AC3
Видео: MPEG Video 720:576 6140Kbps 25.00fps
Аудио: AC3 192 kbps 48000 kHz 2 ch






General
Complete name : C:UsersEddyVideosТорентыКороль и Шут - На краю - Live [2014]VIDEO_TSVTS_01_1.VOB
Format : MPEG-PS
File size : 1 000 MiB
Duration : 21mn 12s
Overall bit rate mode : Variable
Overall bit rate : 6 592 Kbps

Video
ID : 224 (0xE0)
Format : MPEG Video
Format version : Version 2
Format profile : [email protected]
Format settings, BVOP : Yes
Format settings, Matrix : Default
Format settings, GOP : M=3, N=12
Duration : 21mn 12s
Bit rate mode : Variable
Bit rate : 6 269 Kbps
Maximum bit rate : 7 000 Kbps
Width : 720 pixels
Height : 576 pixels
Display aspect ratio : 16:9
Frame rate : 25.000 fps
Standard : PAL
Color space : YUV
Chroma subsampling : 4:2:0
Bit depth : 8 bits
Scan type : Interlaced
Scan order : Top Field First
Compression mode : Lossy
Bits/(Pixel*Frame) : 0.605
Stream size : 951 MiB (95%)

Audio
ID : 189 (0xBD)-128 (0x80)
Format : AC-3
Format/Info : Audio Coding 3
Mode extension : CM (complete main)
Format settings, Endianness : Big
Muxing mode : DVD-Video
Duration : 21mn 12s
Bit rate mode : Constant
Bit rate : 192 Kbps
Channel(s) : 2 channels
Channel positions : Front: L R
Sampling rate : 48.0 KHz
Bit depth : 16 bits
Compression mode : Lossy
Stream size : 29.1 MiB (3%)




Скачать Король и Шут - На краю через торрент https://pic1.kartinco.top/images/61/5k2pj.jpg Скачать, смотреть онлайн Король и Шут - На краю бесплантно в хорошем качестве Описание:«На краю...» — последний концертный DVD российской панк-рок-группы «Король и Шут», фильм-концерт. Записан 2 февраля 2013 года во ... 10 10 23
Info! Золотая раздача, скачанное не засчитывается.
Торрент: Зарегистрирован [2014-02-18 07:38] · скачан: 392 раз
Статус: √ проверено
Размер: 3.89 GB
Как cкачать? Как скачать Король и Шут - На краю через торрент | UTorrent

28-11-2019 20:33  


Отключить вcю реклaмy на сайте, в т.ч. и в плеере онлайн просмотра!

18-02-2014 07:57 Король и Шут - На краю Скачать торрент  

Всем ХОЙ кто нить втаньте на раздачу!!!!!!!!!!! ПЛИЗ



18-02-2014 08:06 Король и Шут - На краю Скачать торрент  

Раздавать буду неделю,минимум.Скачаете все.Хой!






Последний раз редактировалось: Stopper68 (2014-02-18 10:37), всего редактировалось 1 раз

18-02-2014 09:47 Король и Шут - На краю Скачать торрент  

горшка уж больше полугода нет в живых. а год 2014?



18-02-2014 10:38 Король и Шут - На краю Скачать торрент  

vaha79 писал(а):

горшка уж больше полугода нет в живых. а год 2014?

Да,DVD готовился к выходу практически год с момента записи концерта.Так то релиз мог выйти и в 2015 году.Тогда бы в исходнике было написано:Год выпуска-2015.Что тут странного то?



18-02-2014 11:56 Король и Шут - На краю Скачать торрент  

Братан лови голду! видел уже этот концерт, он просто шикарен! ! спасибо! жаль Горшка!



18-02-2014 12:19 Король и Шут - На краю Скачать торрент  

большое спасибо. как обычно бывает человека начинаешь особенно ценить когда его уже нет =(



02-03-2014 12:49 Король и Шут - На краю Скачать торрент  

встал на раздачу ,спс за раздачу



20-03-2014 13:17 Король и Шут - На краю Скачать торрент  

28-03-2015 11:38 Король и Шут - На краю Скачать торрент  

Какая группа была! Обидно что альтернативы достойной нет и вряд ли когда то будет.



    Дорогой пользователь! Огромная просьба, поблагодарите релизера, оцените раздачу и оставьте свои комментарий, если Вы скачали Король и Шут - На краю через торрент бесплатно!!
    Комментировать посты могут только пользователи прошедшие не сложную регистрацию
    Показать сообщения:    


    Король и Шут - На краю через торрент
    Скачать бесплатно Король и Шут - На краю
    Король и Шут - На краю скачать торрент
    Король и Шут - На краю смотреть онлайн
    Cкачать фильм Король и Шут - На краю бесплатно
    Король и Шут - На краю скачать торрент в хорошем качестве
    Король и Шут - На краю смотреть онлайн бесплатно в хорошем качестве
    Вы не можете начинать темы
    Вы не можете отвечать на сообщения
    Вы не можете редактировать свои сообщения
    Вы не можете удалять свои сообщения
    Вы не можете голосовать в опросах
    Вы не можете прикреплять файлы к сообщениям
    Вы можете скачивать файлы
    Король и Шут - На краю [2014 г., Punk Rock, DVD5] смотреть онлайн, скачать торрент picoco.icu