Достать ножи: Стеклянная луковица

MVO

Добыча

Дубляж

Уэнсдэй

1 сезон

Тор

Дубляж

13 клиническая

1 сезон

Жестокая ночь

MVO

Одни из нас

1 сезон

Deluxe

pack

Рекомендуем

30

Пиратка

ВАЖНО

ВАЖНО

Ghostwire

Пиратка

jed

RePack

nioh2

RePack

RDR2

RePack

NEED FOR SPEED™ PAYBACK

RePack

скачать торрент

Кинопоиск HD

Острые козырьки 6 сезон

6 сезон

FAR CRY 6

RePack

скачать торрент

Лицензия

скачать торрент

MVO

1

1 сезон

скачать торрент

1 сезон

скачать торрент

Лицензия

  

Через тернии к звездам (Ричард Викторов, Николай Викторов) [1980 г., Фантастика, DVDRip]

Через тернии к звездам через торрент pb.wtf

Размер: 2 GB | Добавлен: 8 лет 11 мес. назад | Торрент скачан:104 раза
Смотреть онлайн | Скачать | Поддержите нас   

18-02-2014 11:40 Через тернии к звездам Скачать торрент  

Через тернии к звездам
Год выпуска: 1980
Страна: СССР
Жанр: Фантастика,
Продолжительность: 02:20:10

Режиссер: Ричард Викторов Николай Викторов
Сценарий: Кир Булычёв, Ричард Викторов

Премьера в мире: 19 октября 2012



В ролях: Борис Щербаков, Елена Фадеева, Глеб Стриженов, Вацлав Дворжецкий, Артём Карапетян, Александр Лазарев, Людмила Нильская, Елена Метёлкина, Александр Михайлов, Николай Тимофеев, Игорь Ледогоров, Улдис Лиелдидж, Евгений Карельских, Игорь Ясулович, Вадим Ледогоров, Надежда Семенцова

Описание: Это оригинальный фильм Ричарда Викторова без реставрации. В таинственных глубинах Вселенной патрульный звездолет «Пушкин» обнаруживает космический корабль неизвестной землянам конструкции. На корабле находят полностью разрушенную лабораторию по клонированию человекоподобных существ. Среди погибших инопланетян оказывается один выживший искусственный гуманоид — девушка Нийя. На Земле выясняется, что в мозг инопланетянки зашит пульт управления, призванный гарантировать точное выполнение «особой миссии». Он начинает действовать в тот момент, когда Нийа в составе земной экспедиции высаживается на своей родной планете Десса…

Качество: DVDRip
Формат: AVI
Видео кодек: XviD
Аудио кодек: AC3
Видео: Xvid 672x384, 25.00fps, 1 524 Kbps
Аудио: Dolby AC3, 48000Hz, 6ch, 384kbps
Релиз от: ralf7sh





Complete name : D:18 02 2014Cherez.ternii.k.zvezdam.1980.XviD.DVDRip-Kinozal.TVЧерез тернии к звёздам с1.avi
Format : AVI
Format/Info : Audio Video Interleave
File size : 1 018 MiB
Duration : 1h 14mn
Overall bit rate : 1 918 Kbps
Writing application : VirtualDubModRus 1.5.10.2 (build 2540/release)
Writing library : VirtualDubMod build 2540/release

Video
ID : 0
Format : MPEG-4 Visual
Format profile : Advanced [email protected]
Format settings, BVOP : 1
Format settings, QPel : No
Format settings, GMC : No warppoints
Format settings, Matrix : Default (H.263)
Muxing mode : Packed bitstream
Codec ID : XVID
Codec ID/Hint : XviD
Duration : 1h 14mn
Bit rate : 1 524 Kbps
Width : 672 pixels
Height : 384 pixels
Display aspect ratio : 16:9
Frame rate : 25.000 fps
Color space : YUV
Chroma subsampling : 4:2:0
Bit depth : 8 bits
Scan type : Progressive
Compression mode : Lossy
Bits/(Pixel*Frame) : 0.236
Stream size : 809 MiB (79%)
Writing library : XviD 1.1.0 (UTC 2005-11-22)

Audio
ID : 1
Format : AC-3
Format/Info : Audio Coding 3
Mode extension : CM (complete main)
Codec ID : 2000
Duration : 1h 14mn
Bit rate mode : Constant
Bit rate : 384 Kbps
Channel(s) : 6 channels
Channel positions : Front: L C R, Side: L R, LFE
Sampling rate : 48.0 KHz
Bit depth : 16 bits
Compression mode : Lossy
Stream size : 204 MiB (20%)
Alignment : Aligned on interleaves
Interleave, duration : 40 ms (1.00 video frame)
Interleave, preload duration : 512 ms




Скачать Через тернии к звездам через торрент https://pic1.kartinco.top/images/61/mg155.jpg Скачать, смотреть онлайн Через тернии к звездам бесплантно в хорошем качестве Описание: Это оригинальный фильм Ричарда Викторова без реставрации. В таинственных глубинах Вселенной патрульный звездолет «Пушкин» ... 10 10 20
Info! Золотая раздача, скачанное не засчитывается.
Торрент: Зарегистрирован [2014-02-18 11:40] · скачан: 104 раз
Статус: √ проверено
Размер: 2 GB
Как cкачать? Как скачать Через тернии к звездам через торрент | UTorrent

28-11-2019 20:33  


Отключить вcю реклaмy на сайте, в т.ч. и в плеере онлайн просмотра!

18-02-2014 13:25 Через тернии к звездам Скачать торрент  

yes yes yes



18-02-2014 15:30 Через тернии к звездам Скачать торрент  

Премьера в мире: 19 октября 2012

???

нашел
Новая версия фильма
В 2001 году сыном режиссёра Николаем Викторовым была выпущена переработанная версия фильма[3]. Проведена цифровая обработка изображения, восстановление цвета, переработаны некоторые спецэффекты, записана полностью новая звуковая дорожка в формате Dolby Digital. Продолжительность фильма приведена в соответствие со стандартами современного кинопроката, в результате он сокращён на 20 минут. По утверждениям авторов, в переработанной версии сокращены растянутые эпизоды, снижавшие динамику фильма, и выброшены эпизоды, нёсшие в себе советскую идеологическую окраску. В новой версии фильма добавлены, в частности, кадры парящих в облаках над космопортом звездолётов (посадочная площадка в точности копирует знаменитую «рюмку» аэропорта Шереметьево-1)[4], кадры висящего в космическом пространстве корабля с Дессы «Гайя»[5].

а у вас
Описание: Это оригинальный фильм Ричарда Викторова без реставрации.

но по времени Продолжительность: 02:20:10 это кастрированая не оригинальная версия
оригинал 148 минут



18-02-2014 16:58 Через тернии к звездам Скачать торрент  

1 серия-01:14:13
2 серия -01:05:56 математика на базе 1 класса,пока не все мозги я пропил, а о другой версии я и неслышал,если есть,то поделитесь с народом



    Дорогой пользователь! Огромная просьба, поблагодарите релизера, оцените раздачу и оставьте свои комментарий, если Вы скачали Через тернии к звездам через торрент бесплатно!!
    Комментировать посты могут только пользователи прошедшие не сложную регистрацию
    Показать сообщения:    


    Через тернии к звездам через торрент
    Скачать бесплатно Через тернии к звездам
    Через тернии к звездам скачать торрент
    Через тернии к звездам смотреть онлайн
    Cкачать фильм Через тернии к звездам бесплатно
    Через тернии к звездам скачать торрент в хорошем качестве
    Через тернии к звездам смотреть онлайн бесплатно в хорошем качестве
    Вы не можете начинать темы
    Вы не можете отвечать на сообщения
    Вы не можете редактировать свои сообщения
    Вы не можете удалять свои сообщения
    Вы не можете голосовать в опросах
    Вы не можете прикреплять файлы к сообщениям
    Вы можете скачивать файлы
    Через тернии к звездам [1980 г., Фантастика, DVDRip] смотреть онлайн, скачать торрент picoco.icu