Ссылка на приватное зеркало нашего сайта всего за 1$. Внимание количество ограничено!!!

2 сезон

iTunes

1 сезон

1

iTunes

iTunes

iTunes

1 сезон

RePack

30

ИГРА 18+

pack

ВАЖНО

!!Акция!!

Alien_RageХит недели

RePack

MK11
pack

Забери бонус

RePack

jed

!!Акция!!

Alien_Rage

RePack

fifa19

RePack

Assassins Creed: Odyssey

RePack

NEED FOR SPEED™ PAYBACK

4 сезон

9 сезон

Бесстыжие 9 сезон

Все сериалы

все сериалы на PB.wtf

RePack

FAR CRY 5
  

Судья Сезон: 1 / Серии: 4 из 4 (Виктор Конисевич) [2014 г., Остросюжетный сериал, SATRip] pb.wtf

Судья Сезон: 1 через торрент pb.wtf

Размер: 2.34 GB | Добавлен: 6 лет 8 мес. назад | Торрент скачан:503 раза
Скачать  

18-02-2014 22:51 Судья Сезон: 1 Скачать торрент  

Судья Год выпуска: 2014
Страна: Россия
Жанр: Остросюжетный сериал,
Продолжительность: 00:44:00 серия

Режиссер: Виктор Конисевич

В ролях: Дмитрий Ульянов, Денис Карасёв, Юрий Беляев, Алексей Янин, Евгений Атарик, Людмила Селютина, Татьяна Лянник,

Описание: Судья Олег Левичев всегда верен своим принципам и судит по закону, а не по эмоциям. Он выносит приговор пенсионеру, убившему мужчину, который изнасиловал его дочь. Даже прокурор удивлен таким жестким решением – 8 лет колонии строгого режима за то, что отец постоял за честь своей дочери. Олег уверен, что, случись с ним такая ситуация, он ни за что не взялся бы за ружье. Вскоре он и его красавица жена едут в небольшой южный городок к ее родителям. Там они случайно встречаются с местным авторитетом Сергеем Зайцевым по прозвищу Зюзя, который держит весь город в своем подчинении. Мужчина добивался внимания Нины в юности, но тогда девушка ответила ему отказом. Но Зюзя привык получать все, что ему нужно, пусть и не сразу, а спустя 20 лет…

Качество: SATRip
Формат: AVI
Видео кодек: XviD
Аудио кодек: MP3
Видео: MPEG4, XviD, 720x448 (1.607), 25.000 fps, 1 796 Kbps (0.223 bit/pixel)
Аудио: MP3 , 48.0 KHz, 2 ch, 128 Kbps, CBR
скриншот   скриншот   скриншот   скриншот   скриншот   скриншот   скриншот  

Код:

[align=center]Формат                           : AVI
Формат/Информация                : Audio Video Interleave
Размер файла                     : 614 Мбайт
Продолжительность                : 44 м.
Общий поток                      : 1933 Кбит/сек
Библиотека кодирования           : VirtualDub build 32507/release

Видео
Идентификатор                    : 0
Формат                           : MPEG-4 Visual
Профиль формата                  : Advanced Simple@L5
Параметр BVOP формата            : 2
Параметр QPel формата            : Нет
Параметр GMC формата             : Без точки перехода
Параметр матрицы формата         : Default (MPEG)
Идентификатор кодека             : XVID
Идентификатор кодека/Подсказка   : XviD
Продолжительность                : 44 м.
Битрейт                          : 1796 Кбит/сек
Ширина                           : 720 пикс.
Высота                           : 448 пикс.
Соотношение сторон               : 1,607
Частота кадров                   : 25,000 кадр/сек
Цветовое пространство            : YUV
Подвыборка цветности             : 4:2:0
Битовая глубина                  : 8 бит
Тип развёртки                    : Прогрессивная
Метод сжатия                     : С потерями
Бит/(Пиксели*Кадры)              : 0.223
Размер потока                    : 570 Мбайт (93%)
Библиотека кодирования           : XviD 64

Аудио
Идентификатор                    : 1
Формат                           : MPEG Audio
Версия формата                   : Version 1
Профиль формата                  : Layer 3
Режим                            : Joint stereo
Идентификатор кодека             : 55
Идентификатор кодека/Подсказка   : MP3
Продолжительность                : 44 м.
Вид битрейта                     : Постоянный
Битрейт                          : 128 Кбит/сек
Канал(ы)                         : 2 канала(ов)
Частота                          : 48,0 КГц
Метод сжатия                     : С потерями
Размер потока                    : 40,6 Мбайт (7%)
Выравнивание                     : Разделение по промежуткам
Продолжительность промежутка     : 40  мс. (1,00 видеокадр)
Время предзагрузки промежутка    : 500 ms[/align]


pb.wtf



Скачать Судья Сезон: 1 через торрент http://pic.kartinco.top/images/6/m1tto.jpg Скачать фильм Судья Сезон: 1 через торрент бесплантно в хорошем качестве Описание: Судья Олег Левичев всегда верен своим принципам и судит по закону, а не по эмоциям. Он выносит приговор пенсионеру, убившему ... 9.5 10 18
Info! Золотая раздача, скачанное не засчитывается.
Торрент: Зарегистрирован [2014-02-18 22:51] · скачан: 503 раз
Статус: √ проверено
Размер: 2.34 GB
Как cкачать? Как скачать Судья Сезон: 1 через торрент | qTorrent

28-11-2019 20:33  

Отключить всю рекламу на сайте

21-02-2014 07:54 Судья Сезон: 1 Скачать торрент  

и не одного отзыва!pb.wtf



    Дорогой пользователь! Огромная просьба, поблагодарите релизера, оцените раздачу и оставьте свои комментарий, если Вы скачали Судья Сезон: 1 через торрент бесплатно! Внесите свою лепту в развитие PiratBit!
    Комментировать посты могут только пользователи прошедшие не сложную регистрацию
    Показать сообщения:    

    Судья Сезон: 1 через торрент
    Скачать бесплатно Судья Сезон: 1
    Судья Сезон: 1 скачать торрент
    Судья Сезон: 1 смотреть онлайн
    Cкачать фильм Судья Сезон: 1 бесплатно
    Судья Сезон: 1 скачать торрент в хорошем качестве
    Судья Сезон: 1 смотреть онлайн бесплатно в хорошем качестве


    Вы не можете начинать темы
    Вы не можете отвечать на сообщения
    Вы не можете редактировать свои сообщения
    Вы не можете удалять свои сообщения
    Вы не можете голосовать в опросах
    Вы не можете прикреплять файлы к сообщениям
    Вы можете скачивать файлы