2 сезон

iTunes

1 сезон

1

iTunes

iTunes

iTunes

1 сезон

RePack

30

ИГРА 18+

pack

ВАЖНО

!!Акция!!

Alien_RageХит недели

RePack

MK11
pack

Забери бонус

RePack

jed

!!Акция!!

Alien_Rage

RePack

fifa19

RePack

Assassins Creed: Odyssey

RePack

NEED FOR SPEED™ PAYBACK

4 сезон

9 сезон

Бесстыжие 9 сезон

Все сериалы

все сериалы на PB.wtf

RePack

FAR CRY 5
  

Небольшое одолжение / Little Favour (Патрик Монро / Patrick Viktor Monroe) [2013, Великобритания, короткометражка, боевик, триллер, WEB-DLRip,Любительский (одноголосый)[Студия "Paradox"] pb.wtf

Небольшое одолжение через торрент pb.wtf

Размер: 296 MB | Добавлен: 6 лет 8 мес. назад | Торрент скачан:112 раз
Скачать  

19-02-2014 16:18 Небольшое одолжение Скачать торрент  


Небольшое одолжение / Little Favour

«Evil wears many faces»

  • Год выпуска:2013
  • Страна:Великобритания
  • Жанр: короткометражка, боевик, триллер
  • Продолжительность: 00:21:15
  • Перевод: Любительский (одноголосый)[Студия "Paradox"]

  • Субтитры: Нет
  • Режиссер:Патрик Монро / Patrick Viktor Monroe
  • В ролях: Бенедикт Камбербэтч (Wallace), Nina Friis (Extra), Liam Loughrey (Thug), Ник Моран (Logan), Колин Сэлмон (James), Роберт Шеннон (Morgan), Julian Shaw (Jimmy), John Street (Pierre), Дженнифер Ван Гессел (Extra)
    • Описание:
      Это история Уоллеса. Прошло уже 7 лет с тех пор, как он оставил службу и 10 лет с того момента, когда его американский коллега, ставший и его другом, спас ему жизнь во время миссии в Ираке. Он вполне успешно занимается бизнесом, стараясь скрыть свою внутреннюю борьбу с посттравматическим стрессовым расстройством. Однажды, когда, казалось бы, наконец, он решается начать новые нормальные отношения, появляется его старый друг Джеймс и просит сделать ему «небольшое одолжение». Мог ли он отказать, ведь этот человек спас ему жизнь?

    • Качество:WEB-DLRip
    • Формат:AVI
    • Видео кодек: XviD
    • Аудио кодек:AC3
    • Видео: 720x320 (2.25:1), 1743 kbps, 29,970 fps
    • Аудио: AC3 / 2.0 / 48 kHz / 192 kbps / 16 bit


    Код:

    General
    Complete name                            : D:ТорентыНебольшое одолжение.2013.WEBDLRip.avi
    Format                                   : AVI
    Format/Info                              : Audio Video Interleave
    File size                                : 296 MiB
    Duration                                 : 21mn 15s
    Overall bit rate                         : 1 948 Kbps
    Writing application                      : VirtualDubMod 1.5.10.2 (build 2540/release)
    Writing library                          : VirtualDubMod build 2540/release

    Video
    ID                                       : 0
    Format                                   : MPEG-4 Visual
    Format profile                           : Advanced Simple@L5
    Format settings, BVOP                    : 1
    Format settings, QPel                    : No
    Format settings, GMC                     : No warppoints
    Format settings, Matrix                  : Default (H.263)
    Codec ID                                 : XVID
    Codec ID/Hint                            : XviD
    Duration                                 : 21mn 15s
    Bit rate                                 : 1 744 Kbps
    Width                                    : 720 pixels
    Height                                   : 320 pixels
    Display aspect ratio                     : 2.25:1
    Frame rate                               : 29.970 fps
    Color space                              : YUV
    Chroma subsampling                       : 4:2:0
    Bit depth                                : 8 bits
    Scan type                                : Progressive
    Compression mode                         : Lossy
    Bits/(Pixel*Frame)                       : 0.253
    Stream size                              : 265 MiB (90%)
    Writing library                          : XviD 1.2.1 (UTC 2008-12-04)

    Audio
    ID                                       : 1
    Format                                   : AC-3
    Format/Info                              : Audio Coding 3
    Mode extension                           : CM (complete main)
    Codec ID                                 : 2000
    Duration                                 : 21mn 15s
    Bit rate mode                            : Constant
    Bit rate                                 : 192 Kbps
    Channel(s)                               : 2 channels
    Channel positions                        : Front: L R
    Sampling rate                            : 48.0 KHz
    Bit depth                                : 16 bits
    Compression mode                         : Lossy
    Stream size                              : 29.2 MiB (10%)
    Alignment                                : Split accross interleaves
    Interleave, duration                     : 33 ms (1.00 video frame)
    Interleave, preload duration             : 500 ms

    Скриншоты:

    Трейлеры к фильмам [2014]
    © Оформление by Raven pb.wtf



  • Скачать Небольшое одолжение через торрент http://pic.kartinco.top/images/6/ordi9.jpg Скачать фильм Небольшое одолжение через торрент бесплантно в хорошем качестве Описание:Это история Уоллеса. Прошло уже 7 лет с тех пор, как он оставил службу и 10 лет с того момента, когда его американский коллега, ... 10 10 4
    Info! Золотая раздача, скачанное не засчитывается.
    Торрент: Зарегистрирован [2014-02-19 16:18] · скачан: 112 раз
    Статус: T временная
    Размер: 296 MB
    Как cкачать? Как скачать Небольшое одолжение через торрент | qTorrent

    28-11-2019 20:33  

    Отключить всю рекламу на сайте

      Дорогой пользователь! Огромная просьба, поблагодарите релизера, оцените раздачу и оставьте свои комментарий, если Вы скачали Небольшое одолжение через торрент бесплатно! Внесите свою лепту в развитие PiratBit!
      Комментировать посты могут только пользователи прошедшие не сложную регистрацию
      Показать сообщения:    

      Небольшое одолжение через торрент
      Скачать бесплатно Небольшое одолжение
      Небольшое одолжение скачать торрент
      Небольшое одолжение смотреть онлайн
      Cкачать фильм Небольшое одолжение бесплатно
      Небольшое одолжение скачать торрент в хорошем качестве
      Небольшое одолжение смотреть онлайн бесплатно в хорошем качестве


      Вы не можете начинать темы
      Вы не можете отвечать на сообщения
      Вы не можете редактировать свои сообщения
      Вы не можете удалять свои сообщения
      Вы не можете голосовать в опросах
      Вы не можете прикреплять файлы к сообщениям
      Вы можете скачивать файлы