новый адрес
Мега распродажа FORZA HORIZON 4 ULTIMATE+ВСЕ DLC+ОНЛАЙН всего за 499р. 349 руб. (супер цена). Внимание количество ограничено!!!

iTunes

1+1

iTunes

мы

iTunes

1

iTunes

Чернобыль

iTunes

Ральф против интернета

Лицензия

ПШазам

Лицензия

Оно 2

Лицензия

30
pack

ВАЖНО

!!Акция!!

Alien_RageХит недели

RePack

Resident Evil 21

ИГРА 18+

pack

RePack

Metro:Exodus

!!Акция!!

Alien_Rage

RePack

fifa19

RePack

Assassins Creed: Odyssey

RePack

NEED FOR SPEED™ PAYBACK

3 сезон

9 сезон

Бесстыжие 9 сезон

Все сериалы

все сериалы на PB.wtf

RePack

FAR CRY 5
Ребята, катастрофически не хватает 1900р. для оплаты серверов за Октябрь (всвязи с блокировками трафик упал в 3 раза), 1-2р., выручайте.
  

Господин Великий Новгород (Алексей Салтыков) [1985 г., Драма, военный, SATRip] pb.wtf

Господин Великий Новгород через торрент pb.wtf

Размер: 1.34 GB | Добавлен: 5 лет 8 мес. назад | Торрент скачан:70 раз
Скачать  

20-02-2014 18:39 Господин Великий Новгород Скачать торрент  

Господин Великий Новгород
Год выпуска: 1985
Страна: СССР Мосфильм
Жанр: Драма, военный
Продолжительность: 01:30:41

Режиссер: Алексей Салтыков
Сценарий: Юрий Лиманов, Алексей Салтыков

Премьера в мире: 29 апреля 1985 года



В ролях: Олег Стриженов, Вячеслав Езепов, Зинаида Кириенко, Елена Антонова, Михаил Жигалов, Александр Кузнецов, Дмитрий Балашов (русский писатель, фольклорист Дмитрий Михайлович Балашов (1927-2000)), Александр Казаков, Лионелла Пырьева, Кенно Оя, Анатолий Скорякин

Описание: Август 1941 года. Новгород готовится к обороне. Крайне важно спасти музейные, культурные ценности, гигантские колокола Софийской звонницы. Получив приказ оставить город, горком уходит в подполье и разворачивает партизанское движение. Гитлеровцы намерены уничтожить Новгород, и для этой цели направляют туда баржу с тротилом...

Качество: SATRip
Формат: AVI
Видео кодек: XviD
Аудио кодек: MP3
Видео: Xvid 672x432, 25.00fps, 1 995 Kbps
Аудио: MPEG Audio Layer 3, 48000Hz, mono, 112kbps
Релиз от: grom1601





General
Complete name : D:19 02 2014Gospodin.Velikiy.Novgorod.1985.XviD.SATRip.avi
Format : AVI
Format/Info : Audio Video Interleave
File size : 1.34 GiB
Duration : 1h 30mn
Overall bit rate : 2 113 Kbps
Writing application : VirtualDubMod 1.5.10.2 (build 2540/release)
Writing library : VirtualDubMod build 2540/release

Video
ID : 0
Format : MPEG-4 Visual
Format profile : Advanced Simple@L5
Format settings, BVOP : 2
Format settings, QPel : No
Format settings, GMC : No warppoints
Format settings, Matrix : Default (MPEG)
Codec ID : XVID
Codec ID/Hint : XviD
Duration : 1h 30mn
Bit rate : 1 995 Kbps
Width : 672 pixels
Height : 432 pixels
Display aspect ratio : 1.556
Frame rate : 25.000 fps
Color space : YUV
Chroma subsampling : 4:2:0
Bit depth : 8 bits
Scan type : Progressive
Compression mode : Lossy
Bits/(Pixel*Frame) : 0.275
Stream size : 1.26 GiB (94%)
Writing library : XviD 1.2.1 (UTC 2008-12-04)

Audio
ID : 1
Format : MPEG Audio
Format version : Version 1
Format profile : Layer 3
Codec ID : 55
Codec ID/Hint : MP3
Duration : 1h 30mn
Bit rate mode : Constant
Bit rate : 112 Kbps
Channel(s) : 1 channel
Sampling rate : 48.0 KHz
Compression mode : Lossy
Stream size : 72.6 MiB (5%)
Alignment : Aligned on interleaves
Interleave, duration : 160 ms (4.00 video frames)
Interleave, preload duration : 504 ms

pb.wtf



Скачать Господин Великий Новгород через торрент http://pic.kartinco.top/images/6/r16v7.jpg Скачать фильм Господин Великий Новгород через торрент бесплантно в хорошем качестве Описание: Август 1941 года. Новгород готовится к обороне. Крайне важно спасти музейные, культурные ценности, гигантские колокола Софийской ... 9.9 10 14
Info! Золотая раздача, скачанное не засчитывается.
Торрент: Зарегистрирован [2014-02-20 18:39] · скачан: 70 раз
Статус: √ проверено
Размер: 1.34 GB
Как cкачать? Как скачать Господин Великий Новгород через торрент | qTorrent


>> Регистрируемся здесь <<






Отзывы и комментарии о схеме читаем и пишем здесь: ---> Отзывы и комментарии о схеме

Новые благодарочки в телеграм довольных пользователей:
скриншот   скриншот   скриншот   скриншот   скриншот

11-08-2014 16:34 Господин Великий Новгород Скачать торрент  

не раздает никто(pb.wtf



    Дорогой пользователь! Огромная просьба, поблагодарите релизера, оцените раздачу и оставьте свои комментарий, если Вы скачали Господин Великий Новгород через торрент бесплатно! Внесите свою лепту в развитие PiratBit!
    Комментировать посты могут только пользователи прошедшие не сложную регистрацию
    Показать сообщения:    

    Господин Великий Новгород через торрент
    Скачать бесплатно Господин Великий Новгород
    Господин Великий Новгород скачать торрент
    Господин Великий Новгород смотреть онлайн
    Cкачать фильм Господин Великий Новгород бесплатно
    Господин Великий Новгород скачать торрент в хорошем качестве
    Господин Великий Новгород смотреть онлайн бесплатно в хорошем качестве


    Вы не можете начинать темы
    Вы не можете отвечать на сообщения
    Вы не можете редактировать свои сообщения
    Вы не можете удалять свои сообщения
    Вы не можете голосовать в опросах
    Вы не можете прикреплять файлы к сообщениям
    Вы можете скачивать файлы