Ссылка на приватное зеркало нашего сайта всего за 1$. Внимание количество ограничено!!!

2 сезон

iTunes

1 сезон

1

2 сезон

2 сезон

iTunes

1 сезон

RePack

30

Ultimate

ВАЖНО

ИГРА 18+

pack

RePack

MK11
pack

Забери бонус

RePack

jed

!!Акция!!

Alien_Rage

RePack

fifa19

RePack

Assassins Creed: Odyssey

RePack

NEED FOR SPEED™ PAYBACK

4 сезон

9 сезон

Бесстыжие 9 сезон

Все сериалы

все сериалы на PB.wtf

RePack

FAR CRY 5
  

Жизнь Адель / La vie d'Adèle - Chapitres 1 et 2 (Абделатиф Кешиш) [2013 г., драма, мелодрама, ., BDRip 720p, Любительский одноголосый] pb.wtf

Жизнь Адель через торрент pb.wtf

Размер: 6.85 GB | Добавлен: 6 лет 9 мес. назад | Торрент скачан:125 раз
Скачать  

20-02-2014 20:26 Жизнь Адель Скачать торрент  

Жизнь Адель / La vie d'Adèle - Chapitres 1 et 2
Год выпуска: 2013
Страна: Франция, Бельгия, Испания
Жанр: драма, мелодрама, .,
Продолжительность: 03:00:08
Перевод: Любительский одноголосный [Pashaup]
Тип релиза:
Субтитры: Английские (Вшитые)

Режиссер: Абделатиф Кешиш
Продюссер: Брахим Чиоуа, Абделатиф Кешиш, Винсент Мэрэвэл
Сценарий: Абделатиф Кешиш, Галия Лакруа, Жюли Маро

Бюджет: $2 190 510
Премьера в мире: 23 мая 2013





Адель Экзаркопулос, Леа Сейду, Салим Кешьюш, Орельен Рекуан, Кэтрин Сали, Бенжамин Сиксу, Мона Валравенс, Альма, Жодоровски, Жереми Лаэрт, Энн Лорье,


15-летняя Адель мечтает о вечной любви и встречает очаровательного парня, который тут же влюбляется в неё. Но неожиданно для неё самой, Адель начинает видеть странные сны с участием загадочной девушки с синими волосами, которую случайно встретила на улице. Юная Адель начинает понимать, что её манят не просто синие волосы, её привлекает сама незнакомка.


Качество: BDRip 720p
Формат: MKV
Видео кодек: AVC
Аудио кодек: AC3
Видео: 4695 kb/s, 1280x536 (2.40:1) 23.976 ftp V_MPEG4/ISO/AVC
Аудио#Russian: AC3, 192 kb/s 48.0 KHz (2 ch) Audio Coding 3
Аудио# French: AC3, 448 kb/s 48.0 KHz (6 ch) Audio Coding 3





Unique ID : 210413226039456143921259883599046359334 (0x9E4C1CFF6C6001A5B5079C3AD63FB926)
Complete name : Chapitres 1 et 2.2013.L1.BDRip.720p.mkv
Format : Matroska
Format version : Version 4 / Version 2
File size : 6.85 GiB
Duration : 3h 0mn
Overall bit rate : 5 444 Kbps
Encoded date : UTC 2014-02-20 15:38:55
Writing application : mkvmerge v6.1.0 ('Old Devil') built on Mar 4 2013 09:10:42
Writing library : libebml v1.3.0 + libmatroska v1.4.0
Video #1
ID : 1
Format : AVC
Format/Info : Advanced Video Codec
Format profile : High@L4.1
Format settings, CABAC : Yes
Format settings, ReFrames : 12 frames
Codec ID : V_MPEG4/ISO/AVC
Duration : 3h 0mn
Bit rate : 4 695 Kbps
Width : 1 280 pixels
Height : 536 pixels
Display aspect ratio : 2.40:1
Frame rate mode : Constant
Frame rate : 23.976 fps
Color space : YUV
Chroma subsampling : 4:2:0
Bit depth : 8 bits
Scan type : Progressive
Bits/(Pixel*Frame) : 0.285
Stream size : 5.91 GiB (86%)
Language : French
Default : Yes
Forced : No
Audio #2
ID : 2
Format : AC-3
Format/Info : Audio Coding 3
Mode extension : CM (complete main)
Format settings, Endianness : Big
Codec ID : A_AC3
Duration : 3h 0mn
Bit rate mode : Constant
Bit rate : 192 Kbps
Channel count : 2 channels
Channel positions : Front: L R
Sampling rate : 48.0 KHz
Bit depth : 16 bits
Compression mode : Lossy
Stream size : 247 MiB (4%)
Language : Russian
Default : Yes
Forced : No
Audio #3
ID : 3
Format : AC-3
Format/Info : Audio Coding 3
Mode extension : CM (complete main)
Format settings, Endianness : Big
Codec ID : A_AC3
Duration : 3h 0mn
Bit rate mode : Constant
Bit rate : 448 Kbps
Channel count : 6 channels
Channel positions : Front: L C R, Side: L R, LFE
Sampling rate : 48.0 KHz
Bit depth : 16 bits
Compression mode : Lossy
Stream size : 577 MiB (8%)
Language : French
Default : No
Forced : No
Text #4
ID : 4
Format : UTF-8
Codec ID : S_TEXT/UTF8
Codec ID/Info : UTF-8 Plain Text
Language : English
Default : No
Forced : No


скриншот   скриншот   скриншот   скриншот   скриншот   скриншот  

pb.wtf



Скачать Жизнь Адель через торрент http://pic.kartinco.top/images/6/zs2j8.jpg Скачать фильм Жизнь Адель через торрент бесплантно в хорошем качестве Год выпуска: 2013 Страна: Франция, Бельгия, ИспанияЖанр: драма, мелодрама, .,Продолжительность: 03:00:08Перевод: одноголосный ... 8 10 6
Info! Золотая раздача, скачанное не засчитывается.
Торрент: Зарегистрирован [2014-02-20 20:26] · скачан: 125 раз
Статус: T временная
Размер: 6.85 GB
Как cкачать? Как скачать Жизнь Адель через торрент | qTorrent

28-11-2019 20:33  

Отключить всю рекламу на сайте

20-02-2014 23:09 Жизнь Адель Скачать торрент  

Фильм снят по заказу общества ЛГБТ. Больше лесбиянок и геев меньше белого населения Европы итд. Великий Китай говорит спасибо!pb.wtf



21-02-2014 03:34 Жизнь Адель Скачать торрент  

воу воу,ничего себе что появилосьpb.wtf



21-02-2014 04:34 Жизнь Адель Скачать торрент  

Тема сисек раскрыта.
Даже не буду качать такую ерундистику...pb.wtf



08-03-2014 00:00 Жизнь Адель Скачать торрент  

Давно ожидала,спасибоpb.wtf



    Дорогой пользователь! Огромная просьба, поблагодарите релизера, оцените раздачу и оставьте свои комментарий, если Вы скачали Жизнь Адель через торрент бесплатно! Внесите свою лепту в развитие PiratBit!
    Комментировать посты могут только пользователи прошедшие не сложную регистрацию
    Показать сообщения:    

    Жизнь Адель через торрент
    Скачать бесплатно Жизнь Адель
    Жизнь Адель скачать торрент
    Жизнь Адель смотреть онлайн
    Cкачать фильм Жизнь Адель бесплатно
    Жизнь Адель скачать торрент в хорошем качестве
    Жизнь Адель смотреть онлайн бесплатно в хорошем качестве


    Вы не можете начинать темы
    Вы не можете отвечать на сообщения
    Вы не можете редактировать свои сообщения
    Вы не можете удалять свои сообщения
    Вы не можете голосовать в опросах
    Вы не можете прикреплять файлы к сообщениям
    Вы можете скачивать файлы