Ссылка на приватное зеркало нашего сайта всего за 1$. Внимание количество ограничено!!!

2 сезон

iTunes

1 сезон

1

iTunes

iTunes

iTunes

1 сезон

RePack

30

ИГРА 18+

pack

ВАЖНО

!!Акция!!

Alien_RageХит недели

RePack

MK11
pack

Забери бонус

RePack

jed

!!Акция!!

Alien_Rage

RePack

fifa19

RePack

Assassins Creed: Odyssey

RePack

NEED FOR SPEED™ PAYBACK

4 сезон

9 сезон

Бесстыжие 9 сезон

Все сериалы

все сериалы на PB.wtf

RePack

FAR CRY 5
  

Щит и Меч / (4 фильма из 4) (Владимир Басов) [1968 г., Военная драма, ВОВ, экранизация, приключения, DVDRip-AVC ] pb.wtf

Щит и Меч через торрент pb.wtf

Размер: 4.87 GB | Добавлен: 6 лет 8 мес. назад | Торрент скачан:85 раз
Скачать  

21-02-2014 07:56 Щит и Меч Скачать торрент  

Щит и Меч
Год выпуска: 1968
Страна: СССР, Польша, Германия (ГДР) Мосфильм, Киностудия "Дефа", ТО «Старт»
Жанр: Военная драма, ВОВ, экранизация, приключения
Продолжительность: 4 x ~ 01:23:18

Режиссер: Владимир Басов
Сценарий: Владимир Басов, Вадим Кожевников

Премьера в мире: 19 августа 1968



В ролях: Станислав Любшин, Владимир Басов, Юозас Будрайтис, Алла Демидова, Олег Янковский, Наталья Величко, Валентина Титова, Алексей Глазырин, Альгимантас Масюлис, Вацлав Дворжецкий, Николай Засухин, Людмила Чурсина, Николай Прокопович, Юрий Медведев, Михаил Погоржельский, Николай Граббе, Георгий Мартынюк, Валентин Смирнитский, Всеволод Сафонов, Игорь Ясулович, Лев Поляков, Ольга Жизнева, Валентина Ананьина, Инга Будкевич, Раднэр Муратов, Эдгар Ходжикян,

Описание: Экранизация одноименного романа Вадима Кожевникова. Киноэпопея из четырёх фильмов: 1 фильм - "Без права быть собой"; 2 фильм - "Приказано выжить..."; 3 фильм - "Обжалованию не подлежит"; 4 фильм - "Последний рубеж". Герой фильма - советский разведчик Александр Белов, выехавший в сороковом году в Германию под именем немца-репатрианта Иоганна Вайса, к сорок четвертому достиг прочного положения в абвере, дослужился до чина обер-лейтенанта и переведен в Берлин, в службу СС. Из самых первых рук он будет получать ценнейшие сведения...
Содержание:
Фильм 1. Без права быть собой.
Фильм 2. Приказано - выжить…
Фильм 3. Обжалованию не подлежит.
Фильм 4. Последний рубеж.

Интересно:

Прототипом Йоганна Вайса стал легендарный советский разведчик Александр Пантелеймонович Святогоров (15 декабря 1913 — 22 июня 2008). О знаменитом разведчике написан ряд книг — «Его имя Зорич», «Двойная западня», «Смерть и жизнь рядом», снято несколько документальных фильмов.
• По другой версии, Вадим Кожевников образ Александра Белова списывал с другого легендарного разведчика — «Рудольфа Абеля» (Вильяма Фишера), на вымышленную фамилию которого якобы намекает имя «Александр Белов».
• Для пробы на главную роль в фильме также приглашали Леонида Сметанникова, который в ту пору лишь поступил в Саратовскую консерваторию имени Л. В. Собинова.
• Фильм снимался на киностудии «Мосфильм» при участии студии «Дефа» (ГДР) и т/о «Старт» (ПНР) в 1967—1968 1967-1968 годах, главным образом в Калининграде, Берлине и в Кракове.

• Роль штаба Абвера в Варшаве исполняет Collegium Maius — старейшее здание Ягеллонского университета в Кракове.
• Роль рейхсканцелярии в фильме исполнило здание рейхсминистерства авиации. Многие натурные съемки проходили в Калининграде (по сценарию Вайс из Риги репатриируется в Кёнигсберг).

• Две первые серии фильма («Без права быть собой», «Приказано выжить») занимают по посещаемости 8-е место среди отечественных фильмов за всю историю советского кинопроката.
• 3 и 4 серии с результатом 46,9 млн. зрителей при тираже 1997 копий занимают по посещаемости 47-е место среди отечественных фильмов за всю историю советского кинопроката.
• Со слов исполнителя главной роли в фильме Станиславa Любшинa, картина, в своё время, произвела впечатление на Владимира Путинa, и, по словам Путина, повлияла на его решение пойти в разведчики.
Качество: DVDRip-AVC
Формат: MKV
Видео кодек: AVC
Аудио кодек: AC3
Видео: MPEG4 Video (H264) 1024x432 (1024:435), 25.00fps, 1 670 Kbps
Аудио: Dolby AC3, 48000Hz, 6ch, 448 Kbps
Релиз от: voveniy





General
Unique ID : 238146449110474138309899473460380812196 (0xB3295676BA326E2C95976471D2D7C3A4)
Complete name : D:19 02 2014Schit.i.mech.(4.filma.iz.4).1967-1968.x264.DVDRip.(AVC)-voveniySchit.i.mech.(film.1.iz.4).1967-1968.x264.DVDRip.(AVC)-voveniy.mkv
Format : Matroska
Format version : Version 2
File size : 1.17 GiB
Duration : 1h 18mn
Overall bit rate : 2 120 Kbps
Encoded date : UTC 2012-02-22 05:11:49
Writing application : mkvmerge v3.0.0 ('Hang up your Hang-Ups') built on Dec 12 2009 15:20:35
Writing library : libebml v0.7.9 + libmatroska v0.8.1

Video
ID : 1
Format : AVC
Format/Info : Advanced Video Codec
Format profile : High@L4.1
Format settings, CABAC : Yes
Format settings, ReFrames : 8 frames
Codec ID : V_MPEG4/ISO/AVC
Duration : 1h 18mn
Bit rate : 1 670 Kbps
Width : 1 024 pixels
Height : 432 pixels
Display aspect ratio : 2.35:1
Original display aspect ratio : 2.35:1
Frame rate : 25.000 fps
Color space : YUV
Chroma subsampling : 4:2:0
Bit depth : 8 bits
Scan type : Progressive
Bits/(Pixel*Frame) : 0.151
Stream size : 920 MiB (77%)
Writing library : x264 core 120 r2146 bcd41db
Encoding settings : cabac=1 / ref=8 / deblock=1:-1:-1 / analyse=0x3:0x133 / me=umh / subme=9 / psy=1 / psy_rd=1.00:0.15 / mixed_ref=1 / me_range=48 / chroma_me=1 / trellis=2 / 8x8dct=1 / cqm=0 / deadzone=21,11 / fast_pskip=0 / chroma_qp_offset=-3 / threads=3 / sliced_threads=0 / nr=0 / decimate=1 / interlaced=0 / bluray_compat=0 / constrained_intra=0 / bframes=3 / b_pyramid=2 / b_adapt=2 / b_bias=0 / direct=3 / weightb=1 / open_gop=0 / weightp=2 / keyint=250 / keyint_min=25 / scenecut=40 / intra_refresh=0 / rc_lookahead=40 / rc=2pass / mbtree=1 / bitrate=1670 / ratetol=1.0 / qcomp=0.60 / qpmin=10 / qpmax=51 / qpstep=4 / cplxblur=20.0 / qblur=0.5 / ip_ratio=1.40 / aq=1:1.00

Audio
ID : 2
Format : AC-3
Format/Info : Audio Coding 3
Mode extension : CM (complete main)
Codec ID : A_AC3
Duration : 1h 18mn
Bit rate mode : Constant
Bit rate : 448 Kbps
Channel(s) : 6 channels
Channel positions : Front: L C R, Side: L R, LFE
Sampling rate : 48.0 KHz
Bit depth : 16 bits
Compression mode : Lossy
Delay relative to video : 525ms
Stream size : 253 MiB (21%)
Title : Original
Language : Russian

Menu
00:00:00.000 : :Chapter 01
00:02:27.000 : :Chapter 02
00:10:19.200 : :Chapter 03
00:17:08.400 : :Chapter 04
00:22:50.400 : :Chapter 05
00:30:25.200 : :Chapter 06
00:39:52.200 : :Chapter 07
00:45:00.000 : :Chapter 08
00:52:03.000 : :Chapter 09
00:57:18.000 : :Chapter 10
01:04:18.000 : :Chapter 11
01:11:02.400 : :Chapter 12

pb.wtf



Скачать Щит и Меч через торрент http://pic.kartinco.top/images/6/b3qdc.jpg Скачать фильм Щит и Меч через торрент бесплантно в хорошем качестве Описание: Экранизация одноименного романа Вадима Кожевникова. Киноэпопея из четырёх фильмов: 1 фильм - "Без права быть собой"; 2 фильм - ... 9.9 10 14
Info! Золотая раздача, скачанное не засчитывается.
Торрент: Зарегистрирован [2014-02-21 07:56] · скачан: 85 раз
Статус: √ проверено
Размер: 4.87 GB
Как cкачать? Как скачать Щит и Меч через торрент | qTorrent

% Раздел Тема Автор DL S | L
Наши Мультфильмы (HD, WEB-DL 720p, 1080p) [ 2.61 GB ] Крепость: щитом и мечом [2015 мультфильм военный WEB-DL 1080p] [Русский] -Lexx- Скачать
1 | 0
Наши Мультфильмы (HD, WEB-DL 720p, 1080p) [ 1.46 GB ] Крепость: щитом и мечом [2015 мультфильм военный BDRip 720p] [] potroks Скачать
1 | 0
Наши мультфильмы [ 1.46 GB ] Крепость: щитом и мечом [2015 мультфильм военный BDRip] [] Twi7ter Скачать
1 | 0
Наши мультфильмы [ 1.09 GB ] Крепость: щитом и мечом [2015 Россия мультфильм военный BDRip-AVC от sokol_ok] [] sokol_ok Скачать
2 | 0
R.G.Resident - Мультфильмы, Видео [ 1.16 GB ] Крепость: щитом и мечом [2015 мультфильм военный BDRip-AVC - [ BD RUS] R.G.Resident Ворон Скачать
1 | 0
Наши Мультфильмы (HD, WEB-DL 720p, 1080p) [ 2.89 GB ] Крепость: щитом и мечом [2015 мультфильм военный BDRip 720p] [] potroks Скачать
1 | 0
Наши Мультфильмы (HD, WEB-DL 720p, 1080p) [ 13.9 GB ] Крепость: щитом и мечом [2015 мультфильм военный семейны Blu-ray] / Russian Mafia Скачать
1 | 0

28-11-2019 20:33  

Отключить всю рекламу на сайте

21-02-2014 08:52 Щит и Меч Скачать торрент  

Супер кино из детства,спасибо)pb.wtf



21-02-2014 16:31 Щит и Меч Скачать торрент  

Олег482, viktor74, aleksandr.kovalyov.62 спасибо за золото !!!pb.wtf



    Дорогой пользователь! Огромная просьба, поблагодарите релизера, оцените раздачу и оставьте свои комментарий, если Вы скачали Щит и Меч через торрент бесплатно! Внесите свою лепту в развитие PiratBit!
    Комментировать посты могут только пользователи прошедшие не сложную регистрацию
    Показать сообщения:    

    Щит и Меч через торрент
    Скачать бесплатно Щит и Меч
    Щит и Меч скачать торрент
    Щит и Меч смотреть онлайн
    Cкачать фильм Щит и Меч бесплатно
    Щит и Меч скачать торрент в хорошем качестве
    Щит и Меч смотреть онлайн бесплатно в хорошем качестве


    Вы не можете начинать темы
    Вы не можете отвечать на сообщения
    Вы не можете редактировать свои сообщения
    Вы не можете удалять свои сообщения
    Вы не можете голосовать в опросах
    Вы не можете прикреплять файлы к сообщениям
    Вы можете скачивать файлы