Ссылка на приватное зеркало всего за 1$. Внимание количество ограничено!!!

iTunes

iTunes

iTunes

1

iTunes

iTunes

iTunes

iTunes

iTunes

30
pack

Новость дня

ВАЖНО

!!Акция!!

Alien_RageХит недели

RePack

Resident Evil 21

ИГРА 18+

pack

RePack

jed

!!Акция!!

Alien_Rage

RePack

fifa19

RePack

Assassins Creed: Odyssey

RePack

NEED FOR SPEED™ PAYBACK

4 сезон

9 сезон

Бесстыжие 9 сезон

Все сериалы

все сериалы на PB.wtf

RePack

FAR CRY 5
  

Романтика Секса 3D - Том 2 / Sex Romance 3D - Vol. 2 (Claudia Vasquez) [2011 г., Erotic, Softporn, 3D, BDRip, Оригинал] pb.wtf

Романтика Секса 3D - Том 2 через торрент pb.wtf

Размер: 2.82 GB | Добавлен: 6 лет 3 мес. назад | Торрент скачан:923 раза
Скачать  

21-02-2014 21:55 Романтика Секса 3D - Том 2 Скачать торрент  

Романтика Секса 3D - Том 2 / Sex Romance 3D - Vol. 2


Год выпуска: 2011
Страна: Germany
Жанр: Erotic, Softporn, 3D,
Продолжительность: 00:52:49
Язык: English
Перевод: Оригинал

Режиссер: Claudia Vasquez
Студия: KSM GmbH

В ролях: Angel Hott, Nick Lang,

Описание: Und auch im zweiten Teil des beliebten Hochglanz-Erotik-Bestsellers geht es in Sachen Sex und Leidenschaft wieder voll zur Sache. Doch dieses Mal ist Sex Romance auf Wunsch noch heier. Denn Sie konnen sich eine Blu-Ray in exquisiter 3D-Technik in den Recorder werfen-und allerfeinste Erotik der Extraklasse erleben. Denn mit der neuen, modernsten3D-Technik bekommen Sie die Moglichkeit, noch besser und dichter beim wilden sexuellen Treiben dabei zu sein als mit dem herkommlichen 2D-Verfahren. Eine vollig neue und bisher unerreichte Bildqualitat wird Ihnen hier geboten, so dass Sie das Gefuhl bekommen als waren Sie selbst ein Teil dieser hemmungslosen sexuellen Obsessionen. Hier wird Ihnen ein weiteres Tor zu einem neuen Universum der Ekstase geoffnet, wie Sie es vorher definitiv noch nie sehen konnten. Dieses erotische Vergnugen sollten Sie sich wirklich nicht entgehen lassen. Es lohnt sich... Erleben Sie dieses Feuer der sexuellen Lust ohne Tabus: Sinnliche Blicke, zartliche Beruhrungen, lustvolle Kusse und brandheien Sex.

Тип HD видео: 1080p
Формат 3D: Half SideBySide / Горизонтальная анаморфная стереопара
Качество: BDRip
Формат: MKV
Видео кодек: H.264/AVC
Аудио кодек: AC3
Видео: 1920x1080 / 23.98fps / 7305 Kbps
Аудио: 48000Hz / stereo / 192 Kbps
скриншот  скриншот  скриншот  скриншот  скриншот  скриншот  
Общее
Уникальный идентификатор : 176439500944841998867182973730929164098 (0x84BD0306E9D8E8EA91F9815DBFAEBF42)
Полное имя : D:DownloadsНа раздачуSex Romance 2 3D 2012 BDRip halfSBS (IgorekSh).mkv
Формат : Matroska
Версия формата : Version 2
Размер файла : 2,82 Гбайт
Продолжительность : 52 м.
Режим общего битрейта : Переменный
Общий поток : 7649 Кбит/сек
Название фильма : SexRomance2_3D_DiGiT.Title2.Bluray3DRip
Дата кодирования : UTC 2012-05-23 06:59:24
Программа кодирования : DVDFab
Библиотека кодирования : libebml v0.7.8 + libmatroska v0.8.1

Видео
Идентификатор : 1
Формат : AVC
Формат/Информация : Advanced Video Codec
Профиль формата : High@L5.1
Параметр CABAC формата : Да
Параметр ReFrames формата : 2 кадра
Идентификатор кодека : V_MPEG4/ISO/AVC
Продолжительность : 52 м.
Вид битрейта : Переменный
Битрейт : 7305 Кбит/сек
Максимальный битрейт : 11,2 Мбит/сек
Ширина : 1920 пикселей
Высота : 1080 пикселей
Соотношение сторон : 16:9
Частота кадров : 23,976 кадра/сек
Цветовое пространство : YUV
Субдискретизация насыщенности : 4:2:0
Битовая глубина : 8 бит
Тип развёртки : Прогрессивная
Бит/(Пиксели*Кадры) : 0.147
Размер потока : 2,70 Гбайт (95%)
Default : Да
Forced : Нет

Аудио
Идентификатор : 2
Формат : AC-3
Формат/Информация : Audio Coding 3
Расширение режима : CM (complete main)
Параметр Endianness формата : Big
Идентификатор кодека : A_AC3
Продолжительность : 52 м.
Вид битрейта : Постоянный
Битрейт : 192 Кбит/сек
Каналы : 2 канала
Расположение каналов : Front: L R
Частота : 48,0 КГц
Битовая глубина : 16 бит
Метод сжатия : С потерями
Размер потока : 72,5 Мбайт (3%)
Default : Да
Forced : Нет

Меню
00:00:00.000 : en:(01)00:00:00:000

pb.wtf



pack Скачать Романтика Секса 3D - Том 2 через торрент http://pic.kartinco.top/images/6/2ap5b.jpg Скачать фильм Романтика Секса 3D - Том 2 через торрент бесплантно в хорошем качестве Описание: Und auch im zweiten Teil des beliebten Hochglanz-Erotik-Bestsellers geht es in Sachen Sex und Leidenschaft wieder voll zur Sache. ... 9.9 10 16
Info! Золотая раздача, скачанное не засчитывается.
Торрент: Зарегистрирован [2014-02-21 21:55] · скачан: 923 раз
Статус: √ проверено
Размер: 2.82 GB
Как cкачать? Как скачать Романтика Секса 3D - Том 2 через торрент | qTorrent

28-11-2019 20:33  

Отключить всю рекламу на сайте

    Дорогой пользователь! Огромная просьба, поблагодарите релизера, оцените раздачу и оставьте свои комментарий, если Вы скачали Романтика Секса 3D - Том 2 через торрент бесплатно! Внесите свою лепту в развитие PiratBit!
    Комментировать посты могут только пользователи прошедшие не сложную регистрацию
    Показать сообщения:    

    Романтика Секса 3D - Том 2 через торрент
    Скачать бесплатно Романтика Секса 3D - Том 2
    Романтика Секса 3D - Том 2 скачать торрент
    Романтика Секса 3D - Том 2 смотреть онлайн
    Cкачать фильм Романтика Секса 3D - Том 2 бесплатно
    Романтика Секса 3D - Том 2 скачать торрент в хорошем качестве
    Романтика Секса 3D - Том 2 смотреть онлайн бесплатно в хорошем качестве


    Вы не можете начинать темы
    Вы не можете отвечать на сообщения
    Вы не можете редактировать свои сообщения
    Вы не можете удалять свои сообщения
    Вы не можете голосовать в опросах
    Вы не можете прикреплять файлы к сообщениям
    Вы можете скачивать файлы