1 сезон

1 сезон

iTunes

1

КиноПоиск HD

Кинопоиск HD

iTunes

13

1 сезон

RePack

30

Новинка

ВАЖНО

ИГРА 18+

pack

RePack

MK11
pack

Легкие деньги

RePack

jed

RePack

fifa19

RePack

RDR2

RePack

NEED FOR SPEED™ PAYBACK

4 сезон

9 сезон

Бесстыжие 9 сезон

Все сериалы

все сериалы на PB.wtf

RePack

FAR CRY 5
  
Magnet ссылка

Изгой / Cast Away (Роберт Земекис) [2000, драма, приключения, HDRip-AVC] DUB / от R.G. PiratFilms pb.wtf

Изгой через торрент pb.wtf

Размер: 2.18 GB | Добавлен: 7 лет 1 мес. назад | Торрент скачан:179 раз
Скачать  

22-02-2014 05:30 Изгой Скачать торрент  

Изгой / Cast Away
«At the edge of the world, his journey begins»



Год выпуска: 2000
Страна: США
Жанр: драма, приключения
Продолжительность: 02:23:46
Перевод: Профессиональный (Дубляж)

Режиссер: Роберт Земекис

В ролях: Том Хэнкс, Хелен Хант, Крис Нот, Ник Сирси, Дженифер Льюис, Пол Санчез, Лари Уайт, Леонид Ситер, Дэвид Аллен Брукс, Елена Папович

Описание: Герой этой картины, Чак Нолан, — сотрудник всемирно известной службы доставки «Федерал Экспресс». Чак — скрупулезный практик и неисправимый педант. Жизнь Нолана, высокопоставленного инспектора международных отделений «ФедЕкс» расписана по минутам. И этих драгоценных минут катастрофически не хватает ни на личную жизнь, ни на любимую женщину…

Однако, безжалостная судьба заставила Нолана иначе взглянуть на отпущенное ему время… Самолет, на котором путешествует Чак, падает в океан. Инженер, единственный, кому посчастливилось остаться в живых, попадает на необитаемый остров. Здесь Нолану предстоит провести мучительно долгие годы в жестокой битве за выживание…


|

Качество: HDRip-AVC (Rip by Phoenix)
Исходник: BDRip 1080p
Формат: MKV
Видео кодек: H.264
Аудио кодек: AC3
Видео: H.264, 998*540, 23,976 кадр/сек, 1718 Кбит/сек, 0.133 Бит/(Пиксели*Кадры)
Аудио: AC3, 448 Кбит/сек, 6 каналов, 48,0 КГц

Код:

x264 [info]: frame I:1142  Avg QP:17.21  size: 56937  PSNR Mean Y:46.73 U:52.53 V:53.51 Avg:47.73 Global:47.14
x264 [info]: frame P:49769 Avg QP:20.15  size: 15739  PSNR Mean Y:44.94 U:51.60 V:52.45 Avg:46.01 Global:45.29
x264 [info]: frame B:155920 Avg QP:21.75  size:  6439  PSNR Mean Y:44.22 U:51.39 V:52.41 Avg:45.36 Global:44.62

Код:

Общее
Уникальный идентификатор         : 251563371155269077786604479332343603023 (0xBD4157CB0A382107855DB397528FDF4F)
Полное имя                       : G:VideoRip by PhoenixCast Away Rip by Phoenix.mkv
Формат                           : Matroska
Размер файла                     : 2,18 Гбайт
Продолжительность                : 2 ч. 23 м.
Общий поток                      : 2167 Кбит/сек
Дата кодирования                 : UTC 2014-02-22 04:57:12
Программа кодирования            : mkvmerge v6.5.0 ('Isn't she lovely') built on Oct 20 2013 12:50:05
Библиотека кодирования           : libebml v1.3.0 + libmatroska v1.4.1

Видео
Идентификатор                    : 1
Формат                           : AVC
Формат/Информация                : Advanced Video Codec
Профиль формата                  : High@L4.1
Параметр CABAC формата           : Да
Параметр ReFrames формата        : 12 кадры
Идентификатор кодека             : V_MPEG4/ISO/AVC
Продолжительность                : 2 ч. 23 м.
Битрейт                          : 1718 Кбит/сек
Ширина                           : 998 пикс.
Высота                           : 540 пикс.
Соотношение сторон               : 16:9
Частота кадров                   : 23,976 кадр/сек
Цветовое пространство            : YUV
Подвыборка цветности             : 4:2:0
Битовая глубина                  : 8 бит
Тип развёртки                    : Прогрессивная
Бит/(Пиксели*Кадры)              : 0.133
Размер потока                    : 1,68 Гбайт (77%)
Заголовок                        : Rip by Phoenix
Библиотека кодирования           : x264 core 138 r2358 9e941d1
Настройки программы              : cabac=1 / ref=12 / deblock=1:2:1 / analyse=0x3:0x113 / me=umh / subme=9 / psy=1 / psy_rd=1.00:0.00 / mixed_ref=1 / me_range=32 / chroma_me=1 / trellis=2 / 8x8dct=1 / cqm=0 / deadzone=21,11 / fast_pskip=1 / chroma_qp_offset=-2 / threads=4 / lookahead_threads=1 / sliced_threads=0 / nr=0 / decimate=1 / interlaced=0 / bluray_compat=0 / constrained_intra=0 / bframes=10 / b_pyramid=2 / b_adapt=2 / b_bias=0 / direct=1 / weightb=1 / open_gop=0 / weightp=2 / keyint=240 / keyint_min=23 / scenecut=40 / intra_refresh=0 / rc_lookahead=40 / rc=2pass / mbtree=1 / bitrate=1718 / ratetol=1.0 / qcomp=0.75 / qpmin=0 / qpmax=69 / qpstep=4 / cplxblur=20.0 / qblur=0.5 / ip_ratio=1.40 / aq=1:1.00
Язык                             : English

Аудио
Идентификатор                    : 2
Формат                           : AC-3
Формат/Информация                : Audio Coding 3
Расширение режима                : CM (complete main)
Идентификатор кодека             : A_AC3
Продолжительность                : 2 ч. 23 м.
Вид битрейта                     : Постоянный
Битрейт                          : 448 Кбит/сек
Канал(ы)                         : 6 канала(ов)
Расположение каналов             : Front: L C R, Side: L R, LFE
Частота                          : 48,0 КГц
Битовая глубина                  : 16 бит
Метод сжатия                     : С потерями
Размер потока                    : 461 Мбайт (21%)
Язык                             : Russian

pb.wtf



Скачать Изгой через торрент https://pic.kartinco.top/images/6/klv9e.jpg Скачать фильм Изгой через торрент бесплантно в хорошем качестве Описание: Герой этой картины, Чак Нолан, — сотрудник всемирно известной службы доставки «Федерал Экспресс». Чак — скрупулезный практик и ... 9.8 10 23
Info! Золотая раздача, скачанное не засчитывается.
Торрент: Зарегистрирован [2014-02-22 05:30] · скачан: 179 раз
Статус: √ проверено
Размер: 2.18 GB
Как cкачать? Как скачать Изгой через торрент | UTorrent

28-11-2019 20:33  

Отключить всю рекламу на сайте

22-02-2014 06:04 Изгой Скачать торрент  

Phoenix, спасибо!! хорошая работа!!!! yespb.wtf



22-02-2014 07:24 Изгой Скачать торрент  

Один из великих фильмов Тома. Спасибо больше. Забираю.pb.wtf



22-02-2014 07:47 Изгой Скачать торрент  

Да фильм высший пилотаж!!!pb.wtf



22-02-2014 08:40 Изгой Скачать торрент  

Великий фильм, спасибо, Phoenix
Переосмыслить свою жизнь порой необходимо.
Хочу на остров, самое время.pb.wtf



    Дорогой пользователь! Огромная просьба, поблагодарите релизера, оцените раздачу и оставьте свои комментарий, если Вы скачали Изгой через торрент бесплатно! Внесите свою лепту в развитие PiratBit!
    Комментировать посты могут только пользователи прошедшие не сложную регистрацию
    Показать сообщения:    

    Изгой через торрент
    Скачать бесплатно Изгой
    Изгой скачать торрент
    Изгой смотреть онлайн
    Cкачать фильм Изгой бесплатно
    Изгой скачать торрент в хорошем качестве
    Изгой смотреть онлайн бесплатно в хорошем качестве


    Вы не можете начинать темы
    Вы не можете отвечать на сообщения
    Вы не можете редактировать свои сообщения
    Вы не можете удалять свои сообщения
    Вы не можете голосовать в опросах
    Вы не можете прикреплять файлы к сообщениям
    Вы можете скачивать файлы