Мега распродажа FORZA HORIZON 4 ULTIMATE+ВСЕ DLC+ОНЛАЙН всего за 499р. 349 руб. (супер цена). Внимание количество ограничено!!!

iTunes

1+1

iTunes

мы

iTunes

1

1 сезон

Чернобыль

1 сезон

Ральф против интернета

Лицензия

ПШазам

8 сезон

Игра престолов

Лицензия

30
pack

ВАЖНО

!!Акция!!

Alien_RageХит недели

RePack

Resident Evil 21

ИГРА 18+

pack

RePack

Metro:Exodus

!!Акция!!

Alien_Rage

RePack

fifa19

RePack

Assassins Creed: Odyssey

RePack

NEED FOR SPEED™ PAYBACK

3 сезон

9 сезон

Бесстыжие 9 сезон

Все сериалы

все сериалы на PB.wtf

RePack

FAR CRY 5
Ребята, катастрофически не хватает 2730р. для оплаты серверов за ИЮНЬ (всвязи с блокировками трафик упал в 3 раза), 1-2р., выручайте.
  

Годзилла / Godzilla (Роланд Эммерих / Roland Emmerich) [ 1998, США, Япония, фантастика, боевик, триллер, HDRip-AVC, MVO, AVO, SUB] от R.G. PiratFilms pb.wtf

Годзилла через торрент pb.wtf

Размер: 2.18 GB | Добавлен: 5 лет 4 мес. назад | Торрент скачан:345 раз
Скачать  

22-02-2014 06:39 Годзилла Скачать торрент  

Годзилла / GodzillaГод выпуска: 1998
Страна: США, Япония
Жанр: фантастика, боевик, триллер
Продолжительность: 02:16:33
Перевод: Профессиональный (многоголосый, закадровый) + Авторский (Гаврилов Андрей)
Субтитры: Russian, English

Режиссер: Роланд Эммерих / Roland Emmerich

В ролях: Мэттью Бродерик (Dr. Niko Tatopoulos), Жан Рено (Philippe Roaché), Мария Питилло (Audrey Timmonds), Хэнк Азария (Victor «Animal» Palotti), Кевин Данн (Colonel Hicks), Майкл Лернер (Mayor Ebert), Гарри Ширер (Charles Caiman), Арабелла Филд (Lucy Palotti), Викки Льюис (Dr. Elsie Chapman), Даг Сэвант (Sergeant O'Neal), Мальколм Дэнар (Dr. Mendel Craven), Лорри Голдмен (Gene - Mayor's Aide)

Описание: Из тихоокеанских джунглей на Нью - Йорк надвинулась страшная катастрофа. На глазах у потрясенных жителей рушатся небоскребы, переворачиваются автобусы, уходят под землю целые кварталы. Но это не ураган и не землетрясение. Это - Годзилла, самое ужасное чудовище в истории.
Для него человеческая цивилизация - лишь жалкий муравейник, дома - спичечные коробки, вертолеты - назойливые стрекозы. Мегаполису грозит полное уничтожение. Армия, оснащенная по последнему слову техники, не в силах противостоять гигантской ящерице. Небольшой группе смельчаков предстоит выяснить, зачем Годзилла пришел в Нью - Йорк. Возможно, тогда им удастся спасти город...



Рейтинг
kinopoisk.ru: 6.967 (24 002)
imdb.com: 5.20 (118 126)
MPAA: PG-13 - Детям до 13 лет просмотр не желателен

Качество: HDRip-AVC
Формат: MKV
Видео кодек: AVC
Аудио кодек: AC3
Видео: AVC, 960x400 (2.40:1), 1857 kbps, 23,976 fps, 0,202 bpp
Аудио №1: русский / AC3 / 2.0 / 48 kHz / 192 kbps / 16 bit |многоголосый, ОРТ|
Аудио №2: русский / AC3 / 2.0 / 48 kHz / 192 kbps / 16 bit |одноголосый, А.Гаврилов|
x264 [info]: frame I:1411 Avg QP:16.50 size: 49892 PSNR Mean Y:46.95 U:50.71 V:52.78 Avg:47.87 Global:47.58
x264 [info]: frame P:42797 Avg QP:19.93 size: 17499 PSNR Mean Y:44.13 U:49.84 V:51.72 Avg:45.17 Global:44.77
x264 [info]: frame B:155283 Avg QP:21.93 size: 7321 PSNR Mean Y:43.06 U:50.19 V:52.16 Avg:44.20 Global:43.70
x264 [info]: consecutive B-frames: 1.9% 2.1% 6.5% 24.3% 18.6% 33.8% 5.9% 4.1% 1.3% 0.9% 0.5%
x264 [info]: mb I I16..4: 5.6% 78.6% 15.8%
x264 [info]: mb P I16..4: 1.8% 12.5% 1.8% P16..4: 45.3% 19.8% 13.6% 0.4% 0.1% skip: 4.6%
x264 [info]: mb B I16..4: 0.1% 1.1% 0.2% B16..8: 44.0% 12.5% 3.3% direct: 7.6% skip:31.2% L0:45.5% L1:46.0% BI: 8.5%
x264 [info]: 8x8 transform intra:78.1% inter:72.8%
x264 [info]: direct mvs spatial:100.0% temporal:0.0%
x264 [info]: coded y,uvDC,uvAC intra: 86.0% 82.0% 46.6% inter: 32.5% 32.3% 2.0%
x264 [info]: i16 v,h,dc,p: 25% 17% 8% 49%
x264 [info]: i8 v,h,dc,ddl,ddr,vr,hd,vl,hu: 9% 7% 4% 11% 17% 15% 14% 12% 11%
x264 [info]: i4 v,h,dc,ddl,ddr,vr,hd,vl,hu: 11% 8% 2% 10% 16% 16% 14% 12% 12%
x264 [info]: i8c dc,h,v,p: 41% 24% 20% 15%
x264 [info]: Weighted P-Frames: Y:13.9% UV:10.2%
x264 [info]: ref P L0: 44.2% 11.6% 16.8% 7.7% 5.8% 4.5% 3.8% 2.6% 2.4% 0.6% 0.0%
x264 [info]: ref B L0: 71.3% 12.4% 6.6% 3.5% 2.6% 2.1% 1.2% 0.4%
x264 [info]: ref B L1: 91.9% 8.1%
x264 [info]: SSIM Mean Y:0.9718194 (15.500db)
x264 [info]: PSNR Mean Y:43.320 U:50.116 V:52.072 Avg:44.433 Global:43.924 kb/s:1880.18
encoded 199491 frames, 3.60 fps, 1880.18 kb/s
General
Unique ID : 221165258783292535872167924770251573337 (0xA662E123F4A4CDD49596D0D280D58859)
Complete name : D:Загрузки из интернетаМои рипыГодзиллаGodzilla.1998.HDRip-AVC.kep.mkv
Format : Matroska
Format version : Version 4 / Version 2
File size : 2.18 GiB
Duration : 2h 16mn
Overall bit rate : 2 287 Kbps
Movie name : Godzilla (1998) HDRip-AVC / kep / от R.G. PiratFilms
Encoded date : UTC 2014-02-20 15:44:04
Writing application : mkvmerge v6.6.0 ('The Edge Of The In Between') built on Dec 1 2013 17:55:00
Writing library : libebml v1.3.0 + libmatroska v1.4.1

Video
ID : 1
Format : AVC
Format/Info : Advanced Video Codec
Format profile : High@L4.1
Format settings, CABAC : Yes
Format settings, ReFrames : 9 frames
Codec ID : V_MPEG4/ISO/AVC
Duration : 2h 16mn
Bit rate : 1 858 Kbps
Width : 960 pixels
Height : 400 pixels
Display aspect ratio : 2.40:1
Frame rate : 23.976 fps
Color space : YUV
Chroma subsampling : 4:2:0
Bit depth : 8 bits
Scan type : Progressive
Bits/(Pixel*Frame) : 0.202
Stream size : 1.77 GiB (81%)
Title : Rip ot kep
Writing library : x264 core 138 r2358 9e941d1
Encoding settings : cabac=1 / ref=9 / deblock=1:-3:-2 / analyse=0x3:0x133 / me=umh / subme=9 / psy=1 / psy_rd=1.00:0.00 / mixed_ref=1 / me_range=32 / chroma_me=1 / trellis=2 / 8x8dct=1 / cqm=0 / deadzone=21,11 / fast_pskip=0 / chroma_qp_offset=-2 / threads=2 / lookahead_threads=1 / sliced_threads=0 / nr=0 / decimate=1 / interlaced=0 / bluray_compat=0 / constrained_intra=0 / bframes=10 / b_pyramid=2 / b_adapt=2 / b_bias=0 / direct=3 / weightb=1 / open_gop=0 / weightp=2 / keyint=240 / keyint_min=23 / scenecut=40 / intra_refresh=0 / rc_lookahead=60 / rc=crf / mbtree=1 / crf=19.2 / qcomp=0.60 / qpmin=10 / qpmax=51 / qpstep=4 / ip_ratio=1.40 / aq=1:1.00
Language : English
Default : Yes
Forced : No

Audio #1
ID : 2
Format : AC-3
Format/Info : Audio Coding 3
Mode extension : CM (complete main)
Codec ID : A_AC3
Duration : 2h 16mn
Bit rate mode : Constant
Bit rate : 192 Kbps
Channel(s) : 2 channels
Channel positions : Front: L R
Sampling rate : 48.0 KHz
Bit depth : 16 bits
Compression mode : Lossy
Stream size : 188 MiB (8%)
Title : AC3 2.0 MVO-ОРТ
Language : Russian
Default : Yes
Forced : No

Audio #2
ID : 3
Format : AC-3
Format/Info : Audio Coding 3
Mode extension : CM (complete main)
Codec ID : A_AC3
Duration : 2h 16mn
Bit rate mode : Constant
Bit rate : 192 Kbps
Channel(s) : 2 channels
Channel positions : Front: L R
Sampling rate : 48.0 KHz
Bit depth : 16 bits
Compression mode : Lossy
Stream size : 188 MiB (8%)
Title : AVO-А.Гаврилов
Language : Russian
Default : No
Forced : No

Text #1
ID : 4
Format : UTF-8
Codec ID : S_TEXT/UTF8
Codec ID/Info : UTF-8 Plain Text
Title : Forced
Language : Russian
Default : Yes
Forced : No

Text #2
ID : 5
Format : UTF-8
Codec ID : S_TEXT/UTF8
Codec ID/Info : UTF-8 Plain Text
Title : IFТ
Language : Russian
Default : No
Forced : No

Text #3
ID : 6
Format : UTF-8
Codec ID : S_TEXT/UTF8
Codec ID/Info : UTF-8 Plain Text
Title : Full
Language : English
Default : No
Forced : No

Сэмпл / Трейлер pb.wtf



Скачать Годзилла через торрент http://i2.imageban.ru/out/2014/02/22/51ebb252f2c322ced355b966b414fa71.png Скачать фильм Годзилла через торрент бесплантно в хорошем качестве Описание: Из тихоокеанских джунглей на Нью - Йорк надвинулась страшная катастрофа. На глазах у потрясенных жителей рушатся небоскребы, ... 9.7 10 19
Info! Золотая раздача, скачанное не засчитывается.
Торрент: Зарегистрирован [2014-02-22 06:39] · скачан: 345 раз
Статус: √ проверено
Размер: 2.18 GB
Как cкачать? Как скачать Годзилла через торрент | qTorrent

% Раздел Тема Автор DL S | L
Фильмы 2014 [DVDrip, WEB-DLRip, HDrip] [ 1.41 GB ] Годзилла / Godzilla [2014 Япония HDRip-AVC ] От R.G. PiratFilms White Smoke Скачать
1 | 0


>> Регистрируемся здесь <<






Отзывы и комментарии о схеме читаем и пишем здесь: ---> Отзывы и комментарии о схеме

Новые благодарочки в телеграм довольных пользователей:
скриншот   скриншот   скриншот   скриншот   скриншот

22-02-2014 07:37 Годзилла Скачать торрент  

ppc.... Нью Йорк расположен на берегу Атлантического океана!!!!pb.wtf



22-02-2014 10:27 Годзилла Скачать торрент  

крутоц ыильмpb.wtf



    Дорогой пользователь! Огромная просьба, поблагодарите релизера, оцените раздачу и оставьте свои комментарий, если Вы скачали Годзилла через торрент бесплатно! Внесите свою лепту в развитие PiratBit!
    Комментировать посты могут только пользователи прошедшие не сложную регистрацию
    Показать сообщения:    

    Годзилла через торрент
    Скачать бесплатно Годзилла
    Годзилла скачать торрент
    Годзилла смотреть онлайн
    Cкачать фильм Годзилла бесплатно
    Годзилла скачать торрент в хорошем качестве
    Годзилла смотреть онлайн бесплатно в хорошем качестве


    Вы не можете начинать темы
    Вы не можете отвечать на сообщения
    Вы не можете редактировать свои сообщения
    Вы не можете удалять свои сообщения
    Вы не можете голосовать в опросах
    Вы не можете прикреплять файлы к сообщениям
    Вы можете скачивать файлы