Ссылка на приватное зеркало нашего сайта всего за 1$. Внимание количество ограничено!!!

2 сезон

iTunes

1 сезон

1

iTunes

iTunes

iTunes

1 сезон

RePack

30

ИГРА 18+

pack

ВАЖНО

!!Акция!!

Alien_RageХит недели

RePack

MK11
pack

Забери бонус

RePack

jed

!!Акция!!

Alien_Rage

RePack

fifa19

RePack

Assassins Creed: Odyssey

RePack

NEED FOR SPEED™ PAYBACK

4 сезон

9 сезон

Бесстыжие 9 сезон

Все сериалы

все сериалы на PB.wtf

RePack

FAR CRY 5
  

Когда я умирала / As I Lay Dying (Джеймс Франко) [2013 г., драма, BDRip, Профессиональный одноголосый] pb.wtf

Когда я умирала через торрент pb.wtf

Размер: 2.06 GB | Добавлен: 6 лет 8 мес. назад | Торрент скачан:40 раз
Скачать  

23-02-2014 16:33 Когда я умирала Скачать торрент  

Когда я умирала / As I Lay Dying
Год выпуска: 2013
Страна: США / Lee Caplin / Picture Entertainment, RabbitBandini Productions
Жанр: драма
Продолжительность: 01:50:00
Перевод: Профессиональный одноголосый (А.Матвеев)

Режиссер: Джеймс Франко



В ролях: Джеймс Франко, Тим Блейк Нельсон, Дэнни МакБрайд, Логан Маршалл-Грин, Ана О’Райли, Джим Пэррак, Бет Грант, Брэйди Перментер, Брайан Лэлли, Дженнифер Кристен Хауэлл,

Описание: Семья везет умирающую женщину Адди Бандрен в родной город Джефферсон в штате Миссисипи, поскольку она хочет быть там похороненной. На это было очень тяжело решиться, поскольку путь неблизкий, а женщина действительно тяжело больна. Но Адди начинает свое последнее путешествие, в котором ее ждет множество приключений. Для нее это станет самым запоминающимся событием в ее жизни..

Качество: BDRip
Формат: AVI
Видео кодек: XviD
Аудио кодек: AC3
Видео: 720x304 (2.37:1), 23.976 fps, XviD build 50 ~2221 kbps avg, 0.42 bit/pixel
Аудио: 48 kHz, AC3 Dolby Digital, 3/2 (L,C,R,l,r) + LFE ch, ~448 kbps


Общее
Полное имя : H:киноAs.I.Lay.Dying.2013.BDRip.avi
Формат : AVI
Формат/Информация : Audio Video Interleave
Профиль формата : OpenDML
Размер файла : 2,06 Гбайт
Продолжительность : 1 ч. 50 м.
Общий поток : 2677 Кбит/сек
Программа кодирования : VirtualDubMod 1.5.10.3 | www.virtualdub-fr.org || (build 2550/release)
Библиотека кодирования : VirtualDubMod build 2550/release

Видео
Идентификатор : 0
Формат : MPEG-4 Visual
Профиль формата : Advanced Simple@L5
Параметр BVOP формата : 2
Параметр QPel формата : Нет
Параметр GMC формата : Без точки перехода
Параметр матрицы формата : Default (H.263)
Идентификатор кодека : XVID
Идентификатор кодека/Подсказка : XviD
Продолжительность : 1 ч. 50 м.
Битрейт : 2217 Кбит/сек
Ширина : 720 пикселей
Высота : 304 пикселя
Соотношение сторон : 2,35:1
Частота кадров : 23,976 кадра/сек
Цветовое пространство : YUV
Субдискретизация насыщенности : 4:2:0
Битовая глубина : 8 бит
Тип развёртки : Прогрессивная
Метод сжатия : С потерями
Бит/(Пиксели*Кадры) : 0.422
Размер потока : 1,70 Гбайт (83%)
Библиотека кодирования : XviD 1.2.1 (UTC 2008-12-04)

Аудио
Идентификатор : 1
Формат : AC-3
Формат/Информация : Audio Coding 3
Расширение режима : CM (complete main)
Параметр Endianness формата : Big
Идентификатор кодека : 2000
Продолжительность : 1 ч. 50 м.
Вид битрейта : Постоянный
Битрейт : 448 Кбит/сек
Каналы : 6 каналов
Расположение каналов : Front: L C R, Side: L R, LFE
Частота : 48,0 КГц
Битовая глубина : 16 бит
Метод сжатия : С потерями
Размер потока : 353 Мбайт (17%)
Выравнивание : Разделение по промежуткам
Продолжительность промежутка : 42 мс. (1,00 видеокадр)
Время предзагрузки промежутка : 500 мс.

pb.wtf



Скачать Когда я умирала через торрент http://pic.kartinco.top/images/6/5nt9w.jpg Скачать фильм Когда я умирала через торрент бесплантно в хорошем качестве Описание: Семья везет умирающую женщину Адди Бандрен в родной город Джефферсон в штате Миссисипи, поскольку она хочет быть там ... 10 10 3
Info! Золотая раздача, скачанное не засчитывается.
Торрент: Зарегистрирован [2014-02-23 16:33] · скачан: 40 раз
Статус: T временная
Размер: 2.06 GB
Как cкачать? Как скачать Когда я умирала через торрент | qTorrent

% Раздел Тема Автор DL S | L
Фильмы 2013 [DVDrip, WEB-DLRip, HDrip] [ 1.46 GB ] Когда я умирала / As I Lay Dying [2013 HDRip многоголосый] Кинопоказ кэп Скачать
1 | 0
T Фильмы 2013 (Звук TS, Cam, VO, DVO) [ 1.37 GB ] Когда я умирала / As I Lay Dying [2013 HDRip] VO Ворон Скачать
1 | 0

28-11-2019 20:33  

Отключить всю рекламу на сайте

    Дорогой пользователь! Огромная просьба, поблагодарите релизера, оцените раздачу и оставьте свои комментарий, если Вы скачали Когда я умирала через торрент бесплатно! Внесите свою лепту в развитие PiratBit!
    Комментировать посты могут только пользователи прошедшие не сложную регистрацию
    Показать сообщения:    

    Когда я умирала через торрент
    Скачать бесплатно Когда я умирала
    Когда я умирала скачать торрент
    Когда я умирала смотреть онлайн
    Cкачать фильм Когда я умирала бесплатно
    Когда я умирала скачать торрент в хорошем качестве
    Когда я умирала смотреть онлайн бесплатно в хорошем качестве


    Вы не можете начинать темы
    Вы не можете отвечать на сообщения
    Вы не можете редактировать свои сообщения
    Вы не можете удалять свои сообщения
    Вы не можете голосовать в опросах
    Вы не можете прикреплять файлы к сообщениям
    Вы можете скачивать файлы