1 сезон

3 сезон

iTunes

1

iTunes

MVO

iTunes

13

1 сезон

RePack

30

Deluxe

pack

Лицензия

ВАЖНО

ИГРА 18+

pack

RePack

MK11

RePack

jed

RePack

fifa19

RePack

RDR2

RePack

NEED FOR SPEED™ PAYBACK

4 сезон

9 сезон

Бесстыжие 9 сезон

Все сериалы

все сериалы на PB.wtf

RePack

FAR CRY 5

Anonymous, добрый вечер, мы катастрофически не успеваем собрать деньги на оплату серверов, помогите нам пожалуйста 5,10,15р., для нас важна любая помощь . В качестве благодарности мы отключим Вам всю рекламу на сайте (укажите свой ник в строку Ваше имя)!

×
  
Magnet ссылка

Убить дракона (Марк Захаров) [1988 г., фэнтези, драма, семейный, DVDRip] pb.wtf

Убить дракона через торрент pb.wtf

Размер: 2.19 GB | Добавлен: 7 лет 5 мес. назад | Торрент скачан:103 раза
Скачать  

23-02-2014 17:14 Убить дракона Скачать торрент  

Убить дракона
«Лучший способ избавиться от дракона - это иметь своего собственного»

Страна: СССР
Год выпуска: 1988
Жанр: Фэнтези, драма, семейный
Продолжительность: 01:55:52
Субтитры: Нет
Режиссер: Марк Захаров
Сценарий: Марк Захаров, Григорий Горин
Композитор: Геннадий Гладков
Текст песен: Юлий Ким
В ролях: Александр Абдулов, Олег Янковский, Евгений Леонов, Вячеслав Тихонов, Александра Захарова, Виктор Раков, Александр Збруев, Франк Мут, Семен Фарада, Александр Филиппенко, Андрей Толубеев, Ольга Волкова, Джамбул Худайбергенов, Василий Петренко
Описание:
О странствующем рыцаре Ланцелоте, бросившем вызов Дракону, о противостоянии человеческого достоинства деспотизму, тирании, реакции...

Это фильм, который надо пересматривать время от времени, хотя бы однажды в пять лет. На мой взгляд, он вечен, насколько может вообще что-либо быть вечным на земле... (Из отзывов зрителей)
Доп. информация: Фильм снят по мотивам пьесы Евгения Шварца «Дракон» (1944)
СССР-ФРГ, ЗДФ-Штутгарт/Бавария-фильм/Ритм (кинокомпания «Мосфильм»)



Качество видео: DVDRip
Формат видео: AVI
Видео кодек: XviD
Аудио кодек: AC3
Видео: 704x528 (1.33:1), 25 fps, XviD build 65 ~2250 kbps avg, 0.24 bit/pixel
Аудио: AC3 Dolby Digital, 3/2 (L,C,R,l,r) + LFE ch, ~448 kbps, 48 kHz
Релиз от: Olu6ka
Общее
Полное имя : F:igorutkaUbit`_drakona_2.19_Olu6ka.avi
Формат : AVI
Формат/Информация : Audio Video Interleave
Профиль формата : OpenDML
Размер файла : 2,19 Гбайт
Продолжительность : 1 ч. 55 м.
Общий поток : 2705 Кбит/сек
Название фильма : U
Программа кодирования : V
Правообладатель : O

Видео
Идентификатор : 0
Формат : MPEG-4 Visual
Профиль формата : Advanced Simple@L5
Параметр BVOP формата : 1
Параметр QPel формата : Нет
Параметр GMC формата : Без точки перехода
Параметр матрицы формата : Выборочная
Идентификатор кодека : XVID
Идентификатор кодека/Подсказка : XviD
Продолжительность : 1 ч. 55 м.
Битрейт : 2245 Кбит/сек
Ширина : 704 пикселя
Высота : 528 пикселей
Соотношение сторон : 4:3
Частота кадров : 25,000 кадров/сек
Цветовое пространство : YUV
Субдискретизация насыщенности : 4:2:0
Битовая глубина : 8 бит
Тип развёртки : Прогрессивная
Метод сжатия : С потерями
Бит/(Пиксели*Кадры) : 0.242
Размер потока : 1,82 Гбайт (83%)
Библиотека кодирования : XviD 65

Аудио
Идентификатор : 1
Формат : AC-3
Формат/Информация : Audio Coding 3
Расширение режима : CM (complete main)
Параметр Endianness формата : Big
Идентификатор кодека : 2000
Продолжительность : 1 ч. 55 м.
Вид битрейта : Постоянный
Битрейт : 448 Кбит/сек
Каналы : 6 каналов
Расположение каналов : Front: L C R, Side: L R, LFE
Частота : 48,0 КГц
Битовая глубина : 16 бит
Метод сжатия : С потерями
Размер потока : 371 Мбайт (17%)
Выравнивание : Разделение по промежуткам
Продолжительность промежутка : 40 мс. (1,00 видеокадр)
Время предзагрузки промежутка : 500 мс.
скриншот   скриншот   скриншот   скриншот   скриншот   скриншот   скриншот   скриншот   скриншот   скриншот  

pb.wtf



Скачать Убить дракона через торрент https://pic1.kartinco.top/images/61/82qbe.jpg Скачать фильм Убить дракона через торрент бесплантно в хорошем качестве Описание: О странствующем рыцаре Ланцелоте, бросившем вызов Дракону, о противостоянии человеческого достоинства деспотизму, тирании, ... 9.9 10 14
Info! Золотая раздача, скачанное не засчитывается.
Торрент: Зарегистрирован [2014-02-23 17:14] · скачан: 103 раз
Статус: √ проверено
Размер: 2.19 GB
Как cкачать? Как скачать Убить дракона через торрент | UTorrent

28-11-2019 20:33  

Отключить всю рекламу на сайте

24-02-2014 18:03 Убить дракона Скачать торрент  

Спасибо-вспомним (слова Миши Гулько) "молодые годы мои"...pb.wtf



24-02-2014 20:51 Убить дракона Скачать торрент  

ded 4ernomor
мои тоже pb.wtf



20-04-2018 16:01 Убить дракона Скачать торрент  

как непрочитанные книги умеют мстить, так и фильмы. наверное. сейчас исправлю пробел.pb.wtf



    Дорогой пользователь! Огромная просьба, поблагодарите релизера, оцените раздачу и оставьте свои комментарий, если Вы скачали Убить дракона через торрент бесплатно! Внесите свою лепту в развитие PiratBit!
    Комментировать посты могут только пользователи прошедшие не сложную регистрацию
    Показать сообщения:    

    Убить дракона через торрент
    Скачать бесплатно Убить дракона
    Убить дракона скачать торрент
    Убить дракона смотреть онлайн
    Cкачать фильм Убить дракона бесплатно
    Убить дракона скачать торрент в хорошем качестве
    Убить дракона смотреть онлайн бесплатно в хорошем качестве


    Вы не можете начинать темы
    Вы не можете отвечать на сообщения
    Вы не можете редактировать свои сообщения
    Вы не можете удалять свои сообщения
    Вы не можете голосовать в опросах
    Вы не можете прикреплять файлы к сообщениям
    Вы можете скачивать файлы