Ссылка на приватное зеркало нашего сайта всего за 1$. Внимание количество ограничено!!!

2 сезон

iTunes

1 сезон

1

iTunes

iTunes

iTunes

1 сезон

RePack

30

ИГРА 18+

pack

ВАЖНО

!!Акция!!

Alien_RageХит недели

RePack

MK11
pack

Забери бонус

RePack

jed

!!Акция!!

Alien_Rage

RePack

fifa19

RePack

Assassins Creed: Odyssey

RePack

NEED FOR SPEED™ PAYBACK

4 сезон

9 сезон

Бесстыжие 9 сезон

Все сериалы

все сериалы на PB.wtf

RePack

FAR CRY 5
  

Полной грудью / Breathe In (Дрэйк Доремус / Drake Doremus) [2013, США, драма, мелодрама, BDRip,Любительский (одноголосый)[datynet] pb.wtf

Полной грудью через торрент pb.wtf

Размер: 1.26 GB | Добавлен: 6 лет 8 мес. назад | Торрент скачан:82 раза
Скачать  

23-02-2014 19:41 Полной грудью Скачать торрент  


Полной грудью / Breathe In

«Evil wears many faces»

  • Год выпуска:2013
  • Страна:США
  • Жанр: драма, мелодрама

  • Продолжительность: 01:37:14
  • Перевод: Любительский (одноголосый)[datynet]

  • Субтитры: Нет
  • Режиссер:Дрэйк Доремус / Drake Doremus
  • В ролях: Гай Пирс (Keith Reynolds), Фелисити Джонс (Sophie), Эми Райан (Megan Reynolds), Маккензи Дэвис (Lauren Reynolds), Мэттью Даддарио (Aaron), Бен Шенкман (Sheldon), Александра Уэнтуорт (Wendy Sebeck), Натаниель Пирт (Blake), Хьюго Бекер (Clement), Шеннон Гарлэнд (Lainey Sebeck), Элиз Эберли (Angela), Николь Патрик (Theresa)
    • Описание:
      Когда иностранная студентка по обмену прибывает в маленький городок на севере штата Нью-Йорк, она навсегда меняет взаимоотношения в принявшей ее семье, а также жизни членов этой семьи.

    • Качество:BDRip
    • Формат:AVI
    • Видео кодек: XviD
    • Аудио кодек:MP3
    • Видео: 720x304 (2.35:1), 1649 kbps, 23,976 fps
    • Аудио: MP3 / 2.0 / 44 kHz / 192 kbps /


    Код:

    General
    Complete name                            : D:ТорентыBreathe In.2013.BDRip.avi
    Format                                   : AVI
    Format/Info                              : Audio Video Interleave
    File size                                : 1.26 GiB
    Duration                                 : 1h 37mn
    Overall bit rate                         : 1 851 Kbps
    Writing library                          : VirtualDub build 34753/release
    Copyright                                : SaM

    Video
    ID                                       : 0
    Format                                   : MPEG-4 Visual
    Format profile                           : Advanced Simple@L5
    Format settings, BVOP                    : 4
    Format settings, QPel                    : No
    Format settings, GMC                     : No warppoints
    Format settings, Matrix                  : Default (H.263)
    Muxing mode                              : Packed bitstream
    Codec ID                                 : XVID
    Codec ID/Hint                            : XviD
    Duration                                 : 1h 37mn
    Bit rate                                 : 1 650 Kbps
    Width                                    : 720 pixels
    Height                                   : 304 pixels
    Display aspect ratio                     : 2.35:1
    Frame rate                               : 23.976 fps
    Color space                              : YUV
    Chroma subsampling                       : 4:2:0
    Bit depth                                : 8 bits
    Scan type                                : Progressive
    Compression mode                         : Lossy
    Bits/(Pixel*Frame)                       : 0.314
    Stream size                              : 1.12 GiB (89%)
    Writing library                          : XviD 64

    Audio
    ID                                       : 1
    Format                                   : MPEG Audio
    Format version                           : Version 1
    Format profile                           : Layer 3
    Codec ID                                 : 55
    Codec ID/Hint                            : MP3
    Duration                                 : 1h 37mn
    Bit rate mode                            : Constant
    Bit rate                                 : 192 Kbps
    Channel(s)                               : 2 channels
    Sampling rate                            : 44.1 KHz
    Compression mode                         : Lossy
    Stream size                              : 134 MiB (10%)
    Alignment                                : Split accross interleaves
    Interleave, duration                     : 42 ms (1.00 video frame)
    Interleave, preload duration             : 500 ms

    Скриншоты:

    Трейлеры к фильмам [2014]
    © Оформление by Raven pb.wtf



  • Скачать Полной грудью через торрент http://pic.kartinco.top/images/6/ordi9.jpg Скачать фильм Полной грудью через торрент бесплантно в хорошем качестве Описание:Когда иностранная студентка по обмену прибывает в маленький городок на севере штата Нью-Йорк, она навсегда меняет взаимоотношения ... 9.8 10 6
    Info! Золотая раздача, скачанное не засчитывается.
    Торрент: Зарегистрирован [2014-02-23 19:41] · скачан: 82 раз
    Статус: T временная
    Размер: 1.26 GB
    Как cкачать? Как скачать Полной грудью через торрент | qTorrent

    % Раздел Тема Автор DL S | L
    Фильмы [HD 720p, 1080p] (Хороший звук DUB, MVO) [ 12.83 GB ] Полной грудью / Breathe In [2013 BDRip 1080p by msltel] 2 x MVO VO msltel Скачать
    1 | 0
    Фильмы [HD 720p, 1080p] (Хороший звук DUB, MVO) [ 4.68 GB ] Полной грудью / Breathe In [2013 BDRip 720p by msltel] 2 x MVO VO msltel Скачать
    1 | 0
    Фильмы без перевода [ 4.37 GB ] Полной грудью / Breathe In [2013 BDRip 720p Оригинал] smaster Скачать
    1 | 0
    Фильмы без перевода [ 6.56 GB ] Полной грудью / Breathe In [2013 BDRip 1080p Оригинал] smaster Скачать
    1 | 0

    28-11-2019 20:33  

    Отключить всю рекламу на сайте

    09-03-2014 17:24 Полной грудью Скачать торрент  

    мне кажется это HDRip,но ни как ни BDRippb.wtf



      Дорогой пользователь! Огромная просьба, поблагодарите релизера, оцените раздачу и оставьте свои комментарий, если Вы скачали Полной грудью через торрент бесплатно! Внесите свою лепту в развитие PiratBit!
      Комментировать посты могут только пользователи прошедшие не сложную регистрацию
      Показать сообщения:    

      Полной грудью через торрент
      Скачать бесплатно Полной грудью
      Полной грудью скачать торрент
      Полной грудью смотреть онлайн
      Cкачать фильм Полной грудью бесплатно
      Полной грудью скачать торрент в хорошем качестве
      Полной грудью смотреть онлайн бесплатно в хорошем качестве


      Вы не можете начинать темы
      Вы не можете отвечать на сообщения
      Вы не можете редактировать свои сообщения
      Вы не можете удалять свои сообщения
      Вы не можете голосовать в опросах
      Вы не можете прикреплять файлы к сообщениям
      Вы можете скачивать файлы