Присоединяйтесь к нам в Telegram!, здесь всегда актуальный адрес сайта, оперативная поддержка и многое другое!!

>

5.9

iTunes

7.4

iTunes

9.4

1 сезон

1

7.4

2 сезон

7.2

iTunes

7.3

1 сезон

13

6.1

iTunes

8.3

GOG

30

ULTIMATE

pack

9.9

Лицензия

ВАЖНО

ИГРА 18+

pack

7.3

RePack

MK11

7.7

RePack

jed

7.8

RePack

fifa19

8.5

RePack

RDR2

RePack

NEED FOR SPEED™ PAYBACK

5 сезон

9 сезон

Бесстыжие 9 сезон

Все сериалы

все сериалы на PB.wtf

RePack

FAR CRY 5

Anonymous, доброе утро, мы катастрофически не успеваем собрать деньги на оплату серверов, помогите нам пожалуйста 5,10,15р., для нас важна любая помощь . В качестве благодарности мы отключим Вам всю рекламу на сайте (укажите свой ник в строку Ваше имя)!

×
  
Magnet ссылка

Сплин - ЗвездоЧАС (клипы) [2010 г., Рок, SATRip] pb.wtf

Сплин - ЗвездоЧАС через торрент pb.wtf

Размер: 700 MB | Добавлен: 7 лет 9 мес. назад | Торрент скачан:62 раза
Смотреть онлайн Сплин - ЗвездоЧАС | Скачать    Ребята, помогите собрать деньги на оплату серверов!!!

24-02-2014 19:25 Сплин - ЗвездоЧАС Скачать торрент  

Сплин - ЗвездоЧАС
Год выпуска: 2010
Страна: Россия Телеканал A-ONE
Жанр: Рок
Продолжительность: 00:51:26
Перевод: Оригинал

В ролях: "Сплин", Александр Георгиевич Васильев, Алексей Мещеряков, Вадим Сергеев, Николай Ростовский, Дмитрий Кунин, Александр Морозов, Николай Лысов, Сергей Наветный, Николай Воронов, Стас Березовский, Ян Николенко

Описание: Телеканал A-ONE (Первый альтернативный) в программе ЗвездоЧАС представляет подборку клипов рок-группы «Сплин», которая вышла в эфир 10 июля 2010 года и приурочена ко дню рождения её лидера Александра Васильева. Дата рождения которого 15 июля 1969 года.
01. Моя любовь (1997) реж. Игорь Перин
02. Орбит без сахара (1997) реж. Мечислав Юзовский
03. Катись, колесо! (1998) реж. Кирилл Злотник
04. Выхода нет (1998) реж. Мечислав Юзовский
05. Молоко и мёд (1999) реж. Юрий Миронов
06. Моё сердце (2001) реж. Алексей Сеченов
07. Пластмассовая жизнь (2002) реж. Михаил Сегал
08. Остаёмся зимовать (2001) реж. Виктор Вилкс
09. Феллини (2001) реж. Алексей Сеченов
10. Новые люди (2003) реж. Михаил Сегал
11. Мы сидели и курили (2004) реж. Олег Куваев
12. Скажи (2006) реж. Михаил Сегал
13. Романс (2003) реж. Михаил Сегал
14. Вниз головой (2009) реж. Ирина Матиенко и Иван Егоров
Качество: SATRip
Формат: AVI
Видео кодек: XviD
Аудио кодек: MP3
Видео: Xvid 640x480, 25.00fps, 1 701 Kbps
Аудио: MPEG Audio Layer 3, 48000Hz, stereo, 192kbps
Релиз от: nepal





General
Complete name : D:25 02 2014спЛин. ЗвездоЧАС. A-One. 2010.avi
Format : AVI
Format/Info : Audio Video Interleave
File size : 700 MiB
Duration : 51mn 26s
Overall bit rate : 1 902 Kbps
Movie name : спЛин - ЗвездоЧАС. A-One (2010)
Writing application : VirtualDubMod 1.5.10.2 (build 2540/release)
Original source form/Name : Music Clip
Copyright : [Rip by drundel]

Video
ID : 0
Format : MPEG-4 Visual
Format profile : Advanced Simple@L5
Format settings, BVOP : 2
Format settings, QPel : No
Format settings, GMC : No warppoints
Format settings, Matrix : Default (MPEG)
Muxing mode : Packed bitstream
Codec ID : XVID
Codec ID/Hint : XviD
Duration : 51mn 26s
Bit rate : 1 701 Kbps
Width : 640 pixels
Height : 480 pixels
Display aspect ratio : 4:3
Frame rate : 25.000 fps
Color space : YUV
Chroma subsampling : 4:2:0
Bit depth : 8 bits
Scan type : Progressive
Compression mode : Lossy
Bits/(Pixel*Frame) : 0.221
Stream size : 626 MiB (89%)
Writing library : XviD 1.2.1 (UTC 2008-12-04)

Audio
ID : 1
Format : MPEG Audio
Format version : Version 1
Format profile : Layer 3
Mode : Joint stereo
Mode extension : MS Stereo
Codec ID : 55
Codec ID/Hint : MP3
Duration : 51mn 25s
Bit rate mode : Constant
Bit rate : 192 Kbps
Channel(s) : 2 channels
Sampling rate : 48.0 KHz
Compression mode : Lossy
Stream size : 70.6 MiB (10%)
Alignment : Aligned on interleaves
Interleave, duration : 40 ms (1.00 video frame)
Interleave, preload duration : 504 ms
Writing library : LAME3.98.4ЄЄЄЄЄЄ

pb.wtf



Скачать Сплин - ЗвездоЧАС через торрент https://pic1.kartinco.top/images/61/2y8a7.jpg Скачать, смотреть онлайн Сплин - ЗвездоЧАС бесплантно в хорошем качестве Описание: Телеканал A-ONE (Первый альтернативный) в программе ЗвездоЧАС представляет подборку клипов рок-группы «Сплин», которая вышла в ... 10 10 4
Info! Золотая раздача, скачанное не засчитывается.
Торрент: Зарегистрирован [2014-02-24 19:25] · скачан: 62 раз
Статус: √ проверено
Размер: 700 MB
Как cкачать? Как скачать Сплин - ЗвездоЧАС через торрент | UTorrent

28-11-2019 20:33  

Отключить всю рекламу на сайте

    Дорогой пользователь! Огромная просьба, поблагодарите релизера, оцените раздачу и оставьте свои комментарий, если Вы скачали Сплин - ЗвездоЧАС через торрент бесплатно!
    Комментировать посты могут только пользователи прошедшие не сложную регистрацию
    Показать сообщения:    

    Сплин - ЗвездоЧАС через торрент
    Скачать бесплатно Сплин - ЗвездоЧАС
    Сплин - ЗвездоЧАС скачать торрент
    Сплин - ЗвездоЧАС смотреть онлайн
    Cкачать фильм Сплин - ЗвездоЧАС бесплатно
    Сплин - ЗвездоЧАС скачать торрент в хорошем качестве
    Сплин - ЗвездоЧАС смотреть онлайн бесплатно в хорошем качестве


    Вы не можете начинать темы
    Вы не можете отвечать на сообщения
    Вы не можете редактировать свои сообщения
    Вы не можете удалять свои сообщения
    Вы не можете голосовать в опросах
    Вы не можете прикреплять файлы к сообщениям
    Вы можете скачивать файлы