Ссылка на приватное зеркало нашего сайта всего за 1$. Внимание количество ограничено!!!

2 сезон

iTunes

1 сезон

1

iTunes

iTunes

iTunes

1 сезон

RePack

30

ИГРА 18+

pack

ВАЖНО

!!Акция!!

Alien_RageХит недели

RePack

MK11
pack

Забери бонус

RePack

jed

!!Акция!!

Alien_Rage

RePack

fifa19

RePack

Assassins Creed: Odyssey

RePack

NEED FOR SPEED™ PAYBACK

4 сезон

9 сезон

Бесстыжие 9 сезон

Все сериалы

все сериалы на PB.wtf

RePack

FAR CRY 5
  

По лезвию бритвы (Вера. Надежда. Судьба) / Серии: 1-8 из 8 (Сергей Кожевников) [2014 г., военный фильм, драма, SATRip] pb.wtf

По лезвию бритвы через торрент pb.wtf

Качают: 1 [ 0 KB/s ]
Размер: 4.6 GB | Добавлен: 6 лет 8 мес. назад | Торрент скачан:1230 раз
Скачать  

25-02-2014 04:08 По лезвию бритвы Скачать торрент  

По лезвию бритвы (Вера. Надежда. Судьба)
Год выпуска: 2014
Страна: Россия Киностудия "Артель"
Жанр: военный фильм, драма
Продолжительность: 8х ~ 00:50:00

Режиссер: Сергей Кожевников
Продюссер: Александр Иванкин, Майя Тоидзе, Артём Чащихин-Тоидзе
Сценарий: Алексей Колмогоров



В ролях: Владислав Резник, Светлана Антонова, Сергей Угрюмов, Егор Баринов, Роман Богданов, Владимир Щербаков, Алексей Потапкин, Алексей Горячев, Александр Андриенко, Максим Битюков, Мария Бушмелёва, Марина Ворожищева, Виктор Фалалеев, Андрей Москвичёв, Роман Гредин, Вильма Кутавичюте, Станислав Стрелков, Александр Числов, Евгений Гусев (II), Владимир Кебин

Описание: В начале войны Николай Кузнецов был заброшен в тыл врага. За время разведывательной деятельности он лично ликвидировал 11 генералов и высокопоставленных чиновников оккупационной администрации нацистской Германии. Посмертно ему было присвоено звание Героя Советского Союза.

Фильм раскрывает психологические переживания главного героя, его внутренние конфликты и показывает осмысление им многих событий войны в период 1941-44-х годов. С одной стороны Кузнецов - убежденный советский патриот, а с другой - человек, способный до такой степени принять на себя "личину" врага, что она становится его вторым "я". По словам самого Николая Кузнецова: "Разведка - нечеловеческое дело, она калечит душу..."

Качество: SATRip
Формат: AVI
Видео кодек: XviD
Аудио кодек: MP3
Видео: Xvid 704x368, 25.00fps, 1 444 Kbps
Аудио: MPEG Audio Layer 3, 48000Hz, stereo, 192kbps
Релиз от: by.simka





General
Complete name : D:25 02 2014По лезвию бритвы (Вера. Надежда. Судьба) (2014)По лезвию бритвы (Вера. Надежда. Судьба).(01.seriya).2014.XviD.SATRip.by.simka.avi
Format : AVI
Format/Info : Audio Video Interleave
File size : 653 MiB
Duration : 55mn 28s
Overall bit rate : 1 645 Kbps
Writing application : VirtualDubModRus 1.5.10.2 (build 2542/release)
Writing library : VirtualDubMod build 2542/release

Video
ID : 0
Format : MPEG-4 Visual
Format profile : Advanced Simple@L5
Format settings, BVOP : 1
Format settings, QPel : No
Format settings, GMC : No warppoints
Format settings, Matrix : Default (MPEG)
Codec ID : XVID
Codec ID/Hint : XviD
Duration : 55mn 28s
Bit rate : 1 444 Kbps
Width : 704 pixels
Height : 368 pixels
Display aspect ratio : 1.913
Frame rate : 25.000 fps
Color space : YUV
Chroma subsampling : 4:2:0
Bit depth : 8 bits
Scan type : Progressive
Compression mode : Lossy
Bits/(Pixel*Frame) : 0.223
Stream size : 573 MiB (88%)
Writing library : XviD 1.2.1 (UTC 2008-12-04)

Audio
ID : 1
Format : MPEG Audio
Format version : Version 1
Format profile : Layer 3
Mode : Joint stereo
Codec ID : 55
Codec ID/Hint : MP3
Duration : 55mn 28s
Bit rate mode : Constant
Bit rate : 192 Kbps
Channel(s) : 2 channels
Sampling rate : 48.0 KHz
Compression mode : Lossy
Stream size : 76.2 MiB (12%)
Alignment : Aligned on interleaves
Interleave, duration : 40 ms (1.00 video frame)
Interleave, preload duration : 504 ms
Writing library : LAME3.99r
Encoding settings : -m j -V 4 -q 2 -lowpass 18.6 -b 192

При каждом добавлении создаётся новый торрент. Чтобы начать докачку нового выпуска, пользователям необходимо сделать следующее:
● остановить скачивание;
● удалить старый торрент у себя из клиента (старые выпуски удалять не надо);
● скачать новый торрент и запустить его у себя в клиенте вместо старого, при этом указать клиенту путь в старую папку куда и должно происходить скачивание новых выпусков;
● ваш клиент при запуске должен произвести хеширование (проверку) старой папки (если не производит сам - помогите ему сделать это), и будет докачивать только те выпуски, которых у вас ещё нет. Старые выпуски при этом не удаляются, а продолжают раздаваться!, Конец фильма!
● Eсли вы уже удалили старые выпуски, то предотвратить повторную закачку старых выпусков можно, отжав галочку в соответсвующих местах при запуске нового торрента.
Добавил 7 и 8 серии pb.wtf



Скачать По лезвию бритвы через торрент http://pic.kartinco.top/images/6/skz3y.jpg Скачать фильм По лезвию бритвы через торрент бесплантно в хорошем качестве Описание: В начале войны Николай Кузнецов был заброшен в тыл врага. За время разведывательной деятельности он лично ликвидировал 11 ... 9.6 10 48
Info! Золотая раздача, скачанное не засчитывается.
Торрент: Зарегистрирован [2014-02-28 01:48] · скачан: 1 230 раз
Статус: √ проверено
Размер: 4.6 GB
Как cкачать? Как скачать По лезвию бритвы через торрент | qTorrent

% Раздел Тема Автор DL S | L
Фильмы (DVD фильмы) [ 4.04 GB ] Бегущий по лезвию бритвы / BLADE RUNNER ) [1992 Киберпанк DVD5] paul08 Скачать
1 | 0


Последний раз редактировалось: lug30 (2014-02-28 03:55), всего редактировалось 5 раз(а)

28-11-2019 20:33  

Отключить всю рекламу на сайте

25-02-2014 23:55 По лезвию бритвы Скачать торрент  

Добавил 3 и 4 серии,просьба : Обновите Торрент!pb.wtf



27-02-2014 17:55 По лезвию бритвы Скачать торрент  

Добавил 5 и 6 серии,просьба : Обновите Торрент!pb.wtf



28-02-2014 01:51 По лезвию бритвы Скачать торрент  

Добавил 7 и 8 серии,просьба : Обновите Торрент!pb.wtf



01-03-2014 06:32 По лезвию бритвы Скачать торрент  

pb.wtf



09-04-2014 03:37 По лезвию бритвы Скачать торрент  

Буду качать,спасибоpb.wtf



    Дорогой пользователь! Огромная просьба, поблагодарите релизера, оцените раздачу и оставьте свои комментарий, если Вы скачали По лезвию бритвы через торрент бесплатно! Внесите свою лепту в развитие PiratBit!
    Комментировать посты могут только пользователи прошедшие не сложную регистрацию
    Показать сообщения:    

    По лезвию бритвы через торрент
    Скачать бесплатно По лезвию бритвы
    По лезвию бритвы скачать торрент
    По лезвию бритвы смотреть онлайн
    Cкачать фильм По лезвию бритвы бесплатно
    По лезвию бритвы скачать торрент в хорошем качестве
    По лезвию бритвы смотреть онлайн бесплатно в хорошем качестве


    Вы не можете начинать темы
    Вы не можете отвечать на сообщения
    Вы не можете редактировать свои сообщения
    Вы не можете удалять свои сообщения
    Вы не можете голосовать в опросах
    Вы не можете прикреплять файлы к сообщениям
    Вы можете скачивать файлы