Ссылка на приватное зеркало нашего сайта всего за 1$. Внимание количество ограничено!!!

2 сезон

iTunes

1 сезон

1

2 сезон

2 сезон

iTunes

1 сезон

RePack

30

Новинка

ВАЖНО

ИГРА 18+

pack

RePack

MK11
pack

Забери бонус

RePack

jed

!!Акция!!

Alien_Rage

RePack

fifa19

RePack

Assassins Creed: Odyssey

RePack

NEED FOR SPEED™ PAYBACK

4 сезон

9 сезон

Бесстыжие 9 сезон

Все сериалы

все сериалы на PB.wtf

RePack

FAR CRY 5
  

Один дома / Home Alone (Крис Коламбус) [1990 г., комедия, приключения, семейный, BD-Remux, Дубляж] pb.wtf

Один дома через торрент pb.wtf

Размер: 30.91 GB | Добавлен: 6 лет 8 мес. назад | Торрент скачан:0 раз
Скачать  

25-02-2014 16:06 Один дома Скачать торрент  

Один дома / Home Alone
Год выпуска: 1990
Страна: США
Жанр: комедия, приключения, семейный,
Продолжительность: 01:42:55
Перевод: Дубляж
Субтитры: Русские, Украинские, Английские

Режиссер: Крис Коламбус
Продюссер: Тарквин Готч, Джон Хьюз, Марк Левинсон
Сценарий: Джон Хьюз

Бюджет: $18 000 000
Премьера в мире: 10 ноября 1990

PG - Рекомендуется присутствие родителей


В ролях: Маколей Калкин, Джо Пеши, Дэниел Стерн, Джон Хёрд, Кэтрин О’Хара, Робертс Блоссом, Анджела Геталс, Девин Рэтрей, Джерри Бэммен, Хиллари Вульф, Джон Кэнди, Ларри Хэнкин,

Описание: Американское семейство отправляется из Чикаго в Европу, но в спешке сборов бестолковые родители забывают дома… одного из своих детей. Юное создание, однако, не теряется и демонстрирует чудеса изобретательности. И когда в дом залезают грабители, им приходится не раз пожалеть о встрече с милым крошкой.

Качество: BD-Remux
Формат: MKV
Видео кодек: AVC
Аудио кодек: AC3, DTS
Видео: MPEG-4 AVC, 33182 Kbps, 1920x1080 (16:9); 23,976 fps; 0,665 bpp
Аудио#1: AC3; 48 kHz, 192 Kbps; CBR; 2 ch |Дубляж, Советский
Аудио#2: DTS; 48 kHz, 1510 Kbps; CBR; 6 ch; 24 bit |Профессиональный двухголосый закадровый, ОРТ
Аудио#3: AC3; 48 kHz, 384 Kbps; CBR; 6 ch |Профессиональный многоголосый закадровый, R5
Аудио#4: AC3; 48 kHz, 192 Kbps; CBR; 2 ch |Профессиональный многоголосый закадровый, Family Fan Edition
Аудио#5: DTS; 48 kHz, 1510 Kbps; CBR; 6 ch; 24 bit |Профессиональный двухголосый закадровый, Премьер Видео Фильм
Аудио#6: DTS; 48 kHz, 1510 Kbps; CBR; 6 ch; 24 bit |Авторский одноголосый закадровый, А.Михалев
Аудио#7: AC3; 48 kHz, 192 Kbps; CBR; 2 ch |Авторский одноголосый закадровый, В.Дохалов
Аудио#8: English; DTS-HD MA; 48 kHz, 3205 kbps |DTS Core: 1510 kbps; VBR; 6 ch; 24 bit
Аудио#9: English; AC3; 48 kHz, 224 Kbps; CBR; 2 ch |Commentary by Director Chris Colombus and Macaulay Culkin
Аудио#10: Ukrainian; AC3; 48 kHz, 192 Kbps; CBR; 2 ch |Профессиональный многоголосый закадровый, Новый канал
[/url]

[/url]

[/url]

[/url]

[/url]

[/url]

[/url]

[/url]

[/url]

[/url]





General
Unique ID : 188999408061150367547815316188371616036 (0x8E2FF64211D5FF659EDFF9255B900124)
Complete name : D:[Фильмы]Один дома ~ Home Alone (1990) BD-Remux.mkv
Format : Matroska
Format version : Version 2
File size : 30.9 GiB
Duration : 1h 42mn
Overall bit rate mode : Variable
Overall bit rate : 43.0 Mbps
Encoded date : UTC 2012-08-16 16:08:43
Writing application : mkvmerge v5.7.0 ('The Whirlwind') built on Jul 8 2012 20:08:51
Writing library : libebml v1.2.3 + libmatroska v1.3.0

Video
ID : 1
Format : AVC
Format/Info : Advanced Video Codec
Format profile : High@L4.1
Format settings, CABAC : Yes
Format settings, ReFrames : 4 frames
Format settings, GOP : M=3, N=6
Codec ID : V_MPEG4/ISO/AVC
Duration : 1h 42mn
Bit rate mode : Variable
Maximum bit rate : 36.4 Mbps
Width : 1 920 pixels
Height : 1 080 pixels
Display aspect ratio : 16:9
Frame rate mode : Constant
Frame rate : 23.976 fps
Color space : YUV
Chroma subsampling : 4:2:0
Bit depth : 8 bits
Scan type : Progressive
Title : Home Alone.1990.AVC.BDRemux.1080p
Language : English
Default : Yes
Forced : No
Color primaries : BT.709
Transfer characteristics : BT.709
Matrix coefficients : BT.709

Audio #1
ID : 2
Format : AC-3
Format/Info : Audio Coding 3
Mode extension : CM (complete main)
Format settings, Endianness : Big
Codec ID : A_AC3
Duration : 1h 42mn
Bit rate mode : Constant
Bit rate : 192 Kbps
Channel(s) : 2 channels
Channel positions : Front: L R
Sampling rate : 48.0 KHz
Bit depth : 16 bits
Compression mode : Lossy
Stream size : 141 MiB (0%)
Title : Дубляж,Советский
Language : Russian
Default : No
Forced : No

Audio #2
ID : 3
Format : AC-3
Format/Info : Audio Coding 3
Mode extension : CM (complete main)
Format settings, Endianness : Big
Codec ID : A_AC3
Duration : 1h 42mn
Bit rate mode : Constant
Bit rate : 384 Kbps
Channel(s) : 6 channels
Channel positions : Front: L C R, Side: L R, LFE
Sampling rate : 48.0 KHz
Bit depth : 16 bits
Compression mode : Lossy
Stream size : 283 MiB (1%)
Title : Профессиональный многоголосый закадровый,R5
Language : Russian
Default : No
Forced : No

Audio #3
ID : 4
Format : AC-3
Format/Info : Audio Coding 3
Mode extension : CM (complete main)
Format settings, Endianness : Big
Codec ID : A_AC3
Duration : 1h 42mn
Bit rate mode : Constant
Bit rate : 192 Kbps
Channel(s) : 2 channels
Channel positions : Front: L R
Sampling rate : 48.0 KHz
Bit depth : 16 bits
Compression mode : Lossy
Stream size : 141 MiB (0%)
Title : Профессиональный многоголосый закадровый, Family Fan Edition
Language : Russian
Default : No
Forced : No

Audio #4
ID : 5
Format : DTS
Format/Info : Digital Theater Systems
Mode : 16
Format settings, Endianness : Big
Codec ID : A_DTS
Duration : 1h 42mn
Bit rate mode : Constant
Bit rate : 1 510 Kbps
Channel(s) : 6 channels
Channel positions : Front: L C R, Side: L R, LFE
Sampling rate : 48.0 KHz
Bit depth : 24 bits
Compression mode : Lossy
Stream size : 1.09 GiB (4%)
Title : Профессиональный двухголосый закадровый, ОРТ
Language : Russian
Default : No
Forced : No

Audio #5
ID : 6
Format : DTS
Format/Info : Digital Theater Systems
Mode : 16
Format settings, Endianness : Big
Codec ID : A_DTS
Duration : 1h 42mn
Bit rate mode : Constant
Bit rate : 1 510 Kbps
Channel(s) : 6 channels
Channel positions : Front: L C R, Side: L R, LFE
Sampling rate : 48.0 KHz
Bit depth : 24 bits
Compression mode : Lossy
Stream size : 1.09 GiB (4%)
Title : Профессиональный двухголосый закадровый,Премьер Видео Фильм
Language : Russian
Default : Yes
Forced : Yes

Audio #6
ID : 7
Format : DTS
Format/Info : Digital Theater Systems
Mode : 16
Format settings, Endianness : Big
Codec ID : A_DTS
Duration : 1h 42mn
Bit rate mode : Constant
Bit rate : 1 510 Kbps
Channel(s) : 6 channels
Channel positions : Front: L C R, Side: L R, LFE
Sampling rate : 48.0 KHz
Bit depth : 24 bits
Compression mode : Lossy
Stream size : 1.09 GiB (4%)
Title : Авторский одноголосый закадровый, А.Михалев
Language : Russian
Default : No
Forced : No

Audio #7
ID : 8
Format : AC-3
Format/Info : Audio Coding 3
Mode extension : CM (complete main)
Format settings, Endianness : Big
Codec ID : A_AC3
Duration : 1h 42mn
Bit rate mode : Constant
Bit rate : 192 Kbps
Channel(s) : 2 channels
Channel positions : Front: L R
Sampling rate : 48.0 KHz
Bit depth : 16 bits
Compression mode : Lossy
Stream size : 141 MiB (0%)
Title : Авторский одноголосый закадровый,В.Дохалов
Language : Russian
Default : No
Forced : No

Audio #8
ID : 9
Format : DTS
Format/Info : Digital Theater Systems
Format profile : MA / Core
Mode : 16
Format settings, Endianness : Big
Codec ID : A_DTS
Duration : 1h 42mn
Bit rate mode : Variable
Bit rate : Unknown / 1 509 Kbps
Channel(s) : 6 channels
Channel positions : Front: L C R, Side: L R, LFE
Sampling rate : 48.0 KHz
Bit depth : 24 bits
Compression mode : Lossless / Lossy
Title : Eng.Orig.DTS-HD
Language : English
Default : No
Forced : No

Audio #9
ID : 10
Format : AC-3
Format/Info : Audio Coding 3
Mode extension : CM (complete main)
Format settings, Endianness : Big
Codec ID : A_AC3
Duration : 1h 42mn
Bit rate mode : Constant
Bit rate : 224 Kbps
Channel(s) : 2 channels
Channel positions : Front: L R
Sampling rate : 48.0 KHz
Bit depth : 16 bits
Compression mode : Lossy
Stream size : 165 MiB (1%)
Title : Commentary by Director Chris Colombus and Macaulay Culkin
Language : English
Default : No
Forced : No

Audio #10
ID : 11
Format : AC-3
Format/Info : Audio Coding 3
Mode extension : CM (complete main)
Format settings, Endianness : Big
Codec ID : A_AC3
Duration : 1h 42mn
Bit rate mode : Constant
Bit rate : 192 Kbps
Channel(s) : 2 channels
Channel positions : Front: L R
Sampling rate : 48.0 KHz
Bit depth : 16 bits
Compression mode : Lossy
Stream size : 141 MiB (0%)
Title : Профессиональный многоголосый закадровый,Новый канал
Language : Ukrainian
Default : No
Forced : No

Text #1
ID : 12
Format : UTF-8
Codec ID : S_TEXT/UTF8
Codec ID/Info : UTF-8 Plain Text
Title : Rus.Subtitles.Full
Language : Russian
Default : No
Forced : No

Text #2
ID : 13
Format : UTF-8
Codec ID : S_TEXT/UTF8
Codec ID/Info : UTF-8 Plain Text
Title : Russian #1
Language : Russian
Default : Yes
Forced : No

Text #3
ID : 14
Format : UTF-8
Codec ID : S_TEXT/UTF8
Codec ID/Info : UTF-8 Plain Text
Title : Russian #2
Language : Russian
Default : No
Forced : No

Text #4
ID : 15
Format : UTF-8
Codec ID : S_TEXT/UTF8
Codec ID/Info : UTF-8 Plain Text
Title : Ukrainian (на непереведенные моменты)
Language : Ukrainian
Default : No
Forced : No

Text #5
ID : 16
Format : UTF-8
Codec ID : S_TEXT/UTF8
Codec ID/Info : UTF-8 Plain Text
Title : English
Language : English
Default : No
Forced : No

Menu
00:00:00.000 : en:Chapter 00
00:03:47.060 : en:Chapter 01
00:05:46.679 : en:Chapter 02
00:08:49.278 : en:Chapter 03
00:11:28.729 : en:Chapter 04
00:13:43.239 : en:Chapter 05
00:19:27.457 : en:Chapter 06
00:25:08.173 : en:Chapter 07
00:31:16.040 : en:Chapter 08
00:35:56.654 : en:Chapter 09
00:41:09.550 : en:Chapter 10
00:51:22.662 : en:Chapter 11
00:57:38.580 : en:Chapter 12
01:03:27.637 : en:Chapter 13
01:06:33.656 : en:Chapter 14
01:13:43.836 : en:Chapter 15
01:15:13.217 : en:Chapter 16
01:19:27.053 : en:Chapter 17
01:22:51.341 : en:Chapter 18
01:26:00.071 : en:Chapter 19
01:28:45.069 : en:Chapter 20
01:33:32.231 : en:Chapter 21
01:37:58.289 : en:Chapter 22
01:39:06.065 : en:Chapter 23

pb.wtf



Скачать Один дома через торрент http://pic.kartinco.top/images/6/vgh5q.jpg Скачать фильм Один дома через торрент бесплантно в хорошем качестве Описание: Американское семейство отправляется из Чикаго в Европу, но в спешке сборов бестолковые родители забывают дома… одного из своих ... 10 10 14
Info! Золотая раздача, скачанное не засчитывается.
Торрент: Зарегистрирован [2014-02-25 16:06] · скачан: 0 раз
Статус: √ проверено
Размер: 30.91 GB
Как cкачать? Как скачать Один дома через торрент | qTorrent

% Раздел Тема Автор DL S | L
Ultra HD (UHD: 2K, 4K, 8K) — видео сверхвысокой чёткости [ 28.88 GB ] Один дома / Home Alone [1990 UHD WEBRip 2160p] [SDR] DUB + MVO + 2xDVO + 3xAVO sheker187 Скачать
1 | 0
Фильмы (BDRip, HDrip-AVC) (48-60 fps) [ 3.8 GB ] Один дома / Home Alone [1990 BDRip-AVC 60 fps ] Tiberiumsun69 Скачать
3 | 0
Фильмы [HD 720p, 1080p] (Хороший звук DUB, MVO) [ 16.94 GB ] Один дома / Home Alone [19901992 г BDRip 720p лицензия] Ke$h@ Скачать
1 | 0
Сборники (HD Video) [ 11.5 GB ] Один дома / Home Alone [19901992 г BDRip 720p DUB MVO AVO] _denis_100 Скачать
2 | 0
Фильмы до 2000 г. [ 4.44 GB ] Один Дома / Home Alone [1990 HDRip] [Все переводы] killermax2013 Скачать
1 | 0
Фильмы до 2000 г. [ 1.46 GB ] Один дома / Home Alone [1990 BDRip-AVC] MVO + Subs dexter lex Скачать
3 | 0
Фильмы (HD 720p, 1080p) (48-60 fps) [ 12.91 GB ] Один дома 2: Затерянный в Нью-Йорке / Home Alone 2: Lost in New York [2010 BDRip 720p 60fps от еnvy / NNNB] DUB MVO DVO AVO VO еnvy Скачать
1 | 0

28-11-2019 20:33  

Отключить всю рекламу на сайте

    Дорогой пользователь! Огромная просьба, поблагодарите релизера, оцените раздачу и оставьте свои комментарий, если Вы скачали Один дома через торрент бесплатно! Внесите свою лепту в развитие PiratBit!
    Комментировать посты могут только пользователи прошедшие не сложную регистрацию
    Показать сообщения:    

    Один дома через торрент
    Скачать бесплатно Один дома
    Один дома скачать торрент
    Один дома смотреть онлайн
    Cкачать фильм Один дома бесплатно
    Один дома скачать торрент в хорошем качестве
    Один дома смотреть онлайн бесплатно в хорошем качестве


    Вы не можете начинать темы
    Вы не можете отвечать на сообщения
    Вы не можете редактировать свои сообщения
    Вы не можете удалять свои сообщения
    Вы не можете голосовать в опросах
    Вы не можете прикреплять файлы к сообщениям
    Вы можете скачивать файлы