Ссылка на приватное зеркало всего за 1$. Внимание количество ограничено!!!

iTunes

iTunes

iTunes

1

iTunes

iTunes

iTunes

WEBRip

iTunes

30
pack

$ от Little Big

ВАЖНО

!!Акция!!

Alien_RageХит недели

RePack

Resident Evil 21

ИГРА 18+

pack

RePack

jed

!!Акция!!

Alien_Rage

RePack

fifa19

RePack

Assassins Creed: Odyssey

RePack

NEED FOR SPEED™ PAYBACK

4 сезон

9 сезон

Бесстыжие 9 сезон

Все сериалы

все сериалы на PB.wtf

RePack

FAR CRY 5
  

Два в одном (Кира Муратова) [2007 г., Драма, Комедия, DVDRip] pb.wtf

Два в одном через торрент pb.wtf

Размер: 2.05 GB | Добавлен: 6 лет 5 мес. назад | Торрент скачан:96 раз
Скачать  

26-02-2014 15:33 Два в одном Скачать торрент  

Два в одном (Кира Муратова)Год выпуска: 2007
Страна: Украина, Россия
Жанр: драма, комедия
Продолжительность: 02:04:49
Перевод: Не требуется
Субтитры: Нет
Режиссер: Кира Муратова
В ролях: Наталья Бузько (Маша), Рената Литвинова (Алиса), Нина Русланова, Богдан Ступка (отец Маши), Александр Баширов (монтировщик), Сергей Бехтерев, Владимир Горянский, Евгений Голубенко, Леонид Кушнир (монтировщик), Александра Свенская, Жан Даниэль, Филипп Панов (повешенный)
Описание:
Фильм состоит из двух новелл.
На сцене театра повесился актер. Как-то в этом замешан рабочий сцены. Но тело лицедея в петле - далеко не единственная, да и не самая захватывающая интрига, раздирающая труппу. Настоящая смерть пришла в мир условности, и уже невозможно предположить, куда заведет череда событий. И понять, сколько еще смертей ждет эту труппу. А может быть, среди этих людей и не было живых?
Но шоу должно продолжаться - во что бы то ни стало, и оно продолжается.
Стареющий ловелас не может смириться с одиночеством. У него есть все, кроме того, в чем он отчаянно нуждается - женщины его жизни. Он готов искать ее до изнеможения. До смерти. Единственная женщина рядом с ним - его дочь, которой приходиться терпеть все издержки такого положения. Не выдерживая напряжения, она приводит в дом свою подругу, простодушную работницу трамвайного депо. Дверь за ними закрывается, и единственный ключ, который позволит им вырваться - это акт любви - или смерти.
Но может ли умереть настоящая любовь?
Рейтинг
kinopoisk.ru: 6.704 (805)
imdb.com: 6.50 (191)
Качество: DVDRip
Формат: AVI
Видео кодек: XviD
Аудио кодек: AC3
Видео: DivX 5, 720x448 (1.607), 2090 kbps, 25 fps, 0,259 bpp
Аудио: русский / AC3 / 5.1 / 256 kbps / 16 bit / 48 kHz

Рип от : band1toz
General
Complete name : F:igorutkaDva.v.odnom.2007.DivX.DVDRip.avi
Format : AVI
Format/Info : Audio Video Interleave
Format profile : OpenDML
File size : 2.05 GiB
Duration : 2h 4mn
Overall bit rate : 2 356 Kbps
Writing application : VirtualDubMod 1.5.4.1 (build 2178/release)
Writing library : VirtualDubMod build 2178/release

Video
ID : 0
Format : MPEG-4 Visual
Format settings, BVOP : 1
Format settings, QPel : No
Format settings, GMC : No warppoints
Format settings, Matrix : Default (H.263)
Muxing mode : Packed bitstream
Codec ID : DX50
Codec ID/Hint : DivX 5
Duration : 2h 4mn
Bit rate : 2 091 Kbps
Width : 720 pixels
Height : 448 pixels
Display aspect ratio : 1.607
Frame rate : 25.000 fps
Color space : YUV
Chroma subsampling : 4:2:0
Bit depth : 8 bits
Scan type : Progressive
Compression mode : Lossy
Bits/(Pixel*Frame) : 0.259
Stream size : 1.82 GiB (89%)
Writing library : DivX 6.8.0 (UTC 2007-12-04)

Audio
ID : 1
Format : AC-3
Format/Info : Audio Coding 3
Mode extension : CM (complete main)
Codec ID : 2000
Duration : 2h 4mn
Bit rate mode : Constant
Bit rate : 256 Kbps
Channel(s) : 6 channels
Channel positions : Front: L C R, Side: L R, LFE
Sampling rate : 48.0 KHz
Bit depth : 16 bits
Compression mode : Lossy
Stream size : 229 MiB (11%)
Alignment : Split accross interleaves
Interleave, duration : 96 ms (2.40 video frames)
Interleave, preload duration : 96 ms
Language : Russian

Золотой орел, 2008 год / Номинации (1):
Лучшая женская роль второго плана (Нина Русланова)
/ Победитель (1):
Лучший фильм стран СНГ и Балтии
Кинотавр, 2007 год / Номинации (1):
Главный приз

скриншот   скриншот   скриншот   скриншот   скриншот   скриншот   скриншот   скриншот   скриншот   скриншот  
pb.wtf



Скачать Два в одном через торрент http://pic.kartinco.top/images/6/updmi.jpg Скачать фильм Два в одном через торрент бесплантно в хорошем качестве Описание: Фильм состоит из двух новелл.На сцене театра повесился актер. Как-то в этом замешан рабочий сцены. Но тело лицедея в петле - ... 7.8 10 4
Info! Золотая раздача, скачанное не засчитывается.
Торрент: Зарегистрирован [2014-02-26 15:33] · скачан: 96 раз
Статус: √ проверено
Размер: 2.05 GB
Как cкачать? Как скачать Два в одном через торрент | qTorrent

% Раздел Тема Автор DL S | L
Наши сериалы [ 6.98 GB ] В одну реку дважды / Серии: 1-4 из 4 [2020 Мело WEB-DL 1080p] bober100 Скачать
1 | 0
Наши сериалы [ 4.96 GB ] В одну реку дважды / Серии: 1-4 из 4 [2020 Мело WEB-DL 720p] bober100 Скачать
1 | 0
Наши сериалы [ 2.41 GB ] В одну реку дважды / Серии: 1-4 из 4 [2020 Мело WEB-DLRip-AVC] bober100 Скачать
1 | 0
Наши сериалы [ 2.42 GB ] В одну реку дважды / Серии: 1-4 из 4 [2020 Мело WEB-DLRip] bober100 Скачать
1 | 0
Фантастика [ 169 MB ] Виктор Сиголаев - Дважды в одну реку [Олег Воля 2018 ~52 Kbps MP3] oleg8 Скачать
1 | 0
Фантастика [ 1.01 GB ] Владимир Сухинин - Два в одном. Оплошности судьбы [Сергей Горбунов 2018 128 kbps MP3] oleg8 Скачать
1 | 0
Русское любительское видео [ 82 MB ] Два в одной-DP'ец девчушке ! [2014 Home Oral Anal Stockings Threesome Doggystyle DP. CamRip] Pir@tya2010 Скачать
1 | 0

28-11-2019 20:33  

Отключить всю рекламу на сайте

    Дорогой пользователь! Огромная просьба, поблагодарите релизера, оцените раздачу и оставьте свои комментарий, если Вы скачали Два в одном через торрент бесплатно! Внесите свою лепту в развитие PiratBit!
    Комментировать посты могут только пользователи прошедшие не сложную регистрацию
    Показать сообщения:    

    Два в одном через торрент
    Скачать бесплатно Два в одном
    Два в одном скачать торрент
    Два в одном смотреть онлайн
    Cкачать фильм Два в одном бесплатно
    Два в одном скачать торрент в хорошем качестве
    Два в одном смотреть онлайн бесплатно в хорошем качестве


    Вы не можете начинать темы
    Вы не можете отвечать на сообщения
    Вы не можете редактировать свои сообщения
    Вы не можете удалять свои сообщения
    Вы не можете голосовать в опросах
    Вы не можете прикреплять файлы к сообщениям
    Вы можете скачивать файлы