Ссылка на приватное зеркало нашего сайта всего за 1$. Внимание количество ограничено!!!

2 сезон

iTunes

1 сезон

1

2 сезон

2 сезон

iTunes

1 сезон

RePack

30

Ultimate

ВАЖНО

ИГРА 18+

pack

RePack

MK11
pack

Забери бонус

RePack

jed

!!Акция!!

Alien_Rage

RePack

fifa19

RePack

Assassins Creed: Odyssey

RePack

NEED FOR SPEED™ PAYBACK

4 сезон

9 сезон

Бесстыжие 9 сезон

Все сериалы

все сериалы на PB.wtf

RePack

FAR CRY 5
  

Тайна Рагнарока / Ragnarok (Миккель Бренне Саннемусе) [2013 г., боевик, приключения, BDRip 720p, Любительский двухголосый [DeadSno & den904] ] pb.wtf

Тайна Рагнарока через торрент pb.wtf

Размер: 5.43 GB | Добавлен: 6 лет 9 мес. назад | Торрент скачан:148 раз
Скачать  

27-02-2014 09:52 Тайна Рагнарока Скачать торрент  

Тайна Рагнарока / Ragnarok
Год выпуска: 2013
Страна: : Норвегия
Жанр: : боевик, приключения,
Продолжительность: : 01:41:07
Перевод:: Любительский двухголосый [DeadSno & den904]
Тип релиза:
Субтитры:: Russian [Mannenr], English

Режиссер: : Миккель Бренне Саннемусе
Сценарий: : John Kåre Raake

Бюджет: : NOK 38 500 000
Премьера в мире:: 30 августа 2013




Пол Сверре Хаген, Николай Клеве Брок, Cофия Хелин, Мария Аннетт Таннерёд Берглю, Юлиан Подольски, Бьёрн Сундквист,



Главный герой – археолог Сигурд Свендсен, подобно знаменитому Индиане Джонсу, одержим идеей разгадать загадку далёкого прошлого. Его главный интерес – Осебергский корабль эпохи викингов. Учёный предполагает, что давно известное науке захоронение, где был найден корабль, таит в себе ещё одну, самую главную загадку, а именно – проливает свет на миф о Рагнароке, конце мира. А когда его приятель Аллан сообщает ему об обнаруженном в далёком Финнмарке руническом камне, который может подсказать разгадку тайны, ничто не может остановить Сигурда. Вместе с двумя своими детьми он, вопреки их желанию провести каникулы в тёплых странах, отправляется на самый север, в «ничейную» землю близ норвежско-российской границы. Их сопровождают Аллан, его подруга Элисабет и знаток местных достопримечательностей Лейф. Там героев ждут захватывающие приключения и встречи с неведомым…



Качество: BDRip 720p
Формат: MKV
Видео кодек: AVC
Аудио кодек: DTS
Видео: 4512 kb/s, 1280x534 (2.40:1),24.000 fps MPEG4/ISO/AVC
Аудио# Russian : DTS, 1510 kb/s 48.0 KHz (6 ch)[DeadSno & den904]
Аудио# Norwegian: DTS, 1510 kb/s 48.0 KHz (6 ch)
: Дополнительно: Сохранены оригинальные чаптеры как на Blu-ray
Релиз от:




General
Unique ID : 190241492981083315075036707498617790195 (0x8F1F2DC5D18702F297689D4EBBE0DEF3)
Complete name : M:VIDEORagnarok.2013.Blu.Ray.720p.mkv
Format : Matroska
Format version : Version 4 / Version 2
File size : 5.43 GiB
Duration : 1h 41mn
Overall bit rate : 7 684 Kbps
Movie name : Release Group CINEMANIA
Encoded date : UTC 2014-02-26 18:20:22
Writing application : mkvmerge v6.7.0 ('Back to the Ground') 64bit built on Jan 8 2014 15:10:52
Writing library : libebml v1.3.0 + libmatroska v1.4.1
Video #1
ID : 1
Format : AVC
Format/Info : Advanced Video Codec
Format profile : High@L4.1
Format settings, CABAC : Yes
Format settings, ReFrames : 12 frames
Codec ID : V_MPEG4/ISO/AVC
Duration : 1h 41mn
Bit rate : 4 512 Kbps
Width : 1 280 pixels
Height : 534 pixels
Display aspect ratio : 2.40:1
Frame rate mode : Constant
Frame rate : 24.000 fps
Color space : YUV
Chroma subsampling : 4:2:0
Bit depth : 8 bits
Scan type : Progressive
Bits/(Pixel*Frame) : 0.275
Stream size : 3.19 GiB (59%)
Title : Release Group CINEMANIA
Language : English
Default : Yes
Forced : No
Audio #2
ID : 2
Format : DTS
Format/Info : Digital Theater Systems
Mode : 16
Format settings, Endianness : Big
Codec ID : A_DTS
Duration : 1h 41mn
Bit rate mode : Constant
Bit rate : 1 510 Kbps
Channel count : 6 channels
Channel positions : Front: L C R, Side: L R, LFE
Sampling rate : 48.0 KHz
Bit depth : 24 bits
Compression mode : Lossy
Stream size : 1.07 GiB (20%)
Title : Влад и Снежинка
Language : Russian
Default : Yes
Forced : Yes
Audio #3
ID : 3
Format : DTS
Format/Info : Digital Theater Systems
Mode : 16
Format settings, Endianness : Big
Codec ID : A_DTS
Duration : 1h 41mn
Bit rate mode : Constant
Bit rate : 1 509 Kbps
Channel count : 6 channels
Channel positions : Front: L C R, Side: L R, LFE
Sampling rate : 48.0 KHz
Bit depth : 24 bits
Compression mode : Lossy
Stream size : 1.07 GiB (20%)
Language : Norwegian
Default : No
Forced : No
Text #4
ID : 4
Format : UTF-8
Codec ID : S_TEXT/UTF8
Codec ID/Info : UTF-8 Plain Text
Title : Mannenr
Language : Russian
Default : No
Forced : No
Text #5
ID : 5
Format : UTF-8
Codec ID : S_TEXT/UTF8
Codec ID/Info : UTF-8 Plain Text
Language : English
Default : No
Forced : No


Тайна Рагнарока скачать торрент



скриншот   скриншот   скриншот   скриншот   скриншот  

pb.wtf



Скачать Тайна Рагнарока через торрент http://pic.kartinco.top/images/6/vc8wa.jpg Скачать фильм Тайна Рагнарока через торрент бесплантно в хорошем качестве Год выпуска: 2013Страна: : НорвегияЖанр: : боевик, приключения,Продолжительность: : 01:41:07Перевод:: двухголосый [DeadSno & ... 9.9 10 7
Info! Золотая раздача, скачанное не засчитывается.
Торрент: Зарегистрирован [2014-02-27 09:52] · скачан: 148 раз
Статус: T временная
Размер: 5.43 GB
Как cкачать? Как скачать Тайна Рагнарока через торрент | qTorrent

% Раздел Тема Автор DL S | L
Фильмы 2013 [DVDrip, WEB-DLRip, HDrip] [ 1.45 GB ] Тайна Рагнарока / Gåten Ragnarok [2013 HDRip многоголосый - СТС] Anonymous Скачать
1 | 0
T Фильмы 2013 (Звук TS, Cam, VO, DVO) [ 1.28 GB ] Тайна Рагнарока / Gaten Ragnarok [ 2013 Норвегия HDRip ]VO GEKADOL Скачать
1 | 0
T Фильмы (Blu-ray, BD-Remux, HDDVD) [ 29.46 GB ] Тайна Рагнарока / Ragnarok [2013 BDRemux Любительский двухголосый [DeadSno & den904] ] Ворон Скачать
1 | 0

28-11-2019 20:33  

Отключить всю рекламу на сайте

    Дорогой пользователь! Огромная просьба, поблагодарите релизера, оцените раздачу и оставьте свои комментарий, если Вы скачали Тайна Рагнарока через торрент бесплатно! Внесите свою лепту в развитие PiratBit!
    Комментировать посты могут только пользователи прошедшие не сложную регистрацию
    Показать сообщения:    

    Тайна Рагнарока через торрент
    Скачать бесплатно Тайна Рагнарока
    Тайна Рагнарока скачать торрент
    Тайна Рагнарока смотреть онлайн
    Cкачать фильм Тайна Рагнарока бесплатно
    Тайна Рагнарока скачать торрент в хорошем качестве
    Тайна Рагнарока смотреть онлайн бесплатно в хорошем качестве


    Вы не можете начинать темы
    Вы не можете отвечать на сообщения
    Вы не можете редактировать свои сообщения
    Вы не можете удалять свои сообщения
    Вы не можете голосовать в опросах
    Вы не можете прикреплять файлы к сообщениям
    Вы можете скачивать файлы