1 сезон

1 сезон

iTunes

1

КиноПоиск HD

Кинопоиск HD

iTunes

13

1 сезон

RePack

30

Новинка

ВАЖНО

ИГРА 18+

pack

RePack

MK11
pack

Легкие деньги

RePack

jed

RePack

fifa19

RePack

RDR2

RePack

NEED FOR SPEED™ PAYBACK

4 сезон

9 сезон

Бесстыжие 9 сезон

Все сериалы

все сериалы на PB.wtf

RePack

FAR CRY 5
  
Magnet ссылка

Остров / The Island (Майкл Бэй) [2005, фантастика, боевик, триллер, приключения, HDRip-AVC] DUB [Лицензия] от R.G. PiratFilms pb.wtf

Остров через торрент pb.wtf

Качают: 1 [ 0 KB/s ]
Размер: 2.18 GB | Добавлен: 7 лет 1 мес. назад | Торрент скачан:568 раз
Скачать  

27-02-2014 16:48 Остров Скачать торрент  

Остров / The Island
«Вы были избраны»



Год выпуска: 2005
Страна: США
Жанр: фантастика, боевик, триллер, приключения
Продолжительность: 02:16:04
Перевод: Профессиональный (Дубляж) [Лицензия]

Режиссер: Майкл Бэй

В ролях: Юэн МакГрегор, Скарлетт Йоханссон, Джимон Хонсу, Шон Бин, Стив Бушеми, Майкл Кларк Дункан, Итэн Филлипс, Брайан Степанек, Ноа Тишби, Шиван Флинн

Описание: Линкольн Шесть-Эхо — житель на вид утопического, но охраняемого поселения середины XXI века. Как и все обитатели этого тщательно контролируемого пространства, Линкольн надеется оказаться среди тех, кого отправят на «Остров» — якобы последнее незагрязненное место на планете. Но очень скоро Линкольн обнаруживает, что абсолютно всё, что касается его существования — ложь.

|

Качество: HDRip-AVC (Rip by Phoenix)
Исходник: BDRip 1080p
Формат: MKV
Видео кодек: H.264
Аудио кодек: AC3
Видео: H.264, 898*374, 23,976 кадр/сек, 1905 Кбит/сек, 0.237 Бит/(Пиксели*Кадры)
Аудио: AC3, 384 Кбит/сек, 6 каналов, 48,0 КГц

Код:

x264 [info]: frame I:1660  Avg QP:19.23  size: 53228  PSNR Mean Y:42.74 U:46.77 V:47.33 Avg:43.71 Global:43.44
x264 [info]: frame P:48847 Avg QP:22.48  size: 17347  PSNR Mean Y:40.67 U:45.81 V:45.97 Avg:41.74 Global:41.28
x264 [info]: frame B:145237 Avg QP:24.35  size:  6938  PSNR Mean Y:39.74 U:45.64 V:45.79 Avg:40.90 Global:40.47

Код:

Общее
Уникальный идентификатор         : 204749427825341689613239144333630181274 (0x9A094E2FA5001163869AF9C6FC270F9A)
Полное имя                       : G:VideoRip by PhoenixThe Island Rip by Phoenix.mkv
Формат                           : Matroska
Размер файла                     : 2,18 Гбайт
Продолжительность                : 2 ч. 16 м.
Общий поток                      : 2290 Кбит/сек
Дата кодирования                 : UTC 2014-02-27 07:23:03
Программа кодирования            : mkvmerge v6.5.0 ('Isn't she lovely') built on Oct 20 2013 12:50:05
Библиотека кодирования           : libebml v1.3.0 + libmatroska v1.4.1

Видео
Идентификатор                    : 1
Формат                           : AVC
Формат/Информация                : Advanced Video Codec
Профиль формата                  : High@L4.1
Параметр CABAC формата           : Да
Параметр ReFrames формата        : 12 кадры
Идентификатор кодека             : V_MPEG4/ISO/AVC
Продолжительность                : 2 ч. 16 м.
Битрейт                          : 1905 Кбит/сек
Ширина                           : 898 пикс.
Высота                           : 374 пикс.
Соотношение сторон               : 2,40:1
Частота кадров                   : 23,976 кадр/сек
Цветовое пространство            : YUV
Подвыборка цветности             : 4:2:0
Битовая глубина                  : 8 бит
Тип развёртки                    : Прогрессивная
Бит/(Пиксели*Кадры)              : 0.237
Размер потока                    : 1,77 Гбайт (81%)
Заголовок                        : Rip by Phoenix
Библиотека кодирования           : x264 core 138 r2358 9e941d1
Настройки программы              : cabac=1 / ref=12 / deblock=1:3:3 / analyse=0x3:0x113 / me=umh / subme=9 / psy=1 / psy_rd=1.00:0.00 / mixed_ref=1 / me_range=32 / chroma_me=1 / trellis=2 / 8x8dct=1 / cqm=0 / deadzone=21,11 / fast_pskip=1 / chroma_qp_offset=-2 / threads=4 / lookahead_threads=1 / sliced_threads=0 / nr=0 / decimate=1 / interlaced=0 / bluray_compat=0 / constrained_intra=0 / bframes=10 / b_pyramid=2 / b_adapt=2 / b_bias=0 / direct=1 / weightb=1 / open_gop=0 / weightp=2 / keyint=240 / keyint_min=23 / scenecut=40 / intra_refresh=0 / rc_lookahead=40 / rc=2pass / mbtree=1 / bitrate=1905 / ratetol=1.0 / qcomp=0.75 / qpmin=0 / qpmax=69 / qpstep=4 / cplxblur=20.0 / qblur=0.5 / ip_ratio=1.40 / aq=1:1.00
Язык                             : English

Аудио
Идентификатор                    : 2
Формат                           : AC-3
Формат/Информация                : Audio Coding 3
Расширение режима                : CM (complete main)
Идентификатор кодека             : A_AC3
Продолжительность                : 2 ч. 16 м.
Вид битрейта                     : Постоянный
Битрейт                          : 384 Кбит/сек
Канал(ы)                         : 6 канала(ов)
Расположение каналов             : Front: L C R, Side: L R, LFE
Частота                          : 48,0 КГц
Битовая глубина                  : 16 бит
Метод сжатия                     : С потерями
Размер потока                    : 374 Мбайт (17%)
Язык                             : Russian

pb.wtf



Скачать Остров через торрент https://pic.kartinco.top/images/6/1v2cm.jpg Скачать фильм Остров через торрент бесплантно в хорошем качестве Описание: Линкольн Шесть-Эхо — житель на вид утопического, но охраняемого поселения середины XXI века. Как и все обитатели этого тщательно ... 10 10 29
Info! Золотая раздача, скачанное не засчитывается.
Торрент: Зарегистрирован [2014-02-27 16:48] · скачан: 568 раз
Статус: √ проверено
Размер: 2.18 GB
Как cкачать? Как скачать Остров через торрент | UTorrent

28-11-2019 20:33  

Отключить всю рекламу на сайте

27-02-2014 17:21 Остров Скачать торрент  

Фильм охеренныйpb.wtf



27-02-2014 18:56 Остров Скачать торрент  

Ashy23
:rofle:pb.wtf



    Дорогой пользователь! Огромная просьба, поблагодарите релизера, оцените раздачу и оставьте свои комментарий, если Вы скачали Остров через торрент бесплатно! Внесите свою лепту в развитие PiratBit!
    Комментировать посты могут только пользователи прошедшие не сложную регистрацию
    Показать сообщения:    

    Остров через торрент
    Скачать бесплатно Остров
    Остров скачать торрент
    Остров смотреть онлайн
    Cкачать фильм Остров бесплатно
    Остров скачать торрент в хорошем качестве
    Остров смотреть онлайн бесплатно в хорошем качестве


    Вы не можете начинать темы
    Вы не можете отвечать на сообщения
    Вы не можете редактировать свои сообщения
    Вы не можете удалять свои сообщения
    Вы не можете голосовать в опросах
    Вы не можете прикреплять файлы к сообщениям
    Вы можете скачивать файлы