MEGA SALE -50% FORZA HORIZON 4 ULTIMATE+ВСЕ DLC+ОНЛАЙН всего за 599р. 299 руб. (супер цена). Внимание количество ограничено!!!

iTunes

1+1

iTunes

мы

iTunes

1

iTunes

Чернобыль

iTunes

Ральф против интернета

Лицензия

ПШазам

Лицензия

Игра престолов

Лицензия

30
pack

ВАЖНО

!!Акция!!

Alien_RageХит недели

RePack

Resident Evil 21

ИГРА 18+

pack

RePack

Metro:Exodus

!!Акция!!

Alien_Rage

RePack

fifa19

RePack

Assassins Creed: Odyssey

RePack

NEED FOR SPEED™ PAYBACK

3 сезон

9 сезон

Бесстыжие 9 сезон

Все сериалы

все сериалы на PB.wtf

RePack

FAR CRY 5
Ребята, катастрофически не хватает 7730р. для оплаты серверов за АВГУСТ (всвязи с блокировками трафик упал в 3 раза), 1-2р., выручайте.
  

Пугало / Scarecrow (Шелдон Уилсон) [2013 г., ужасы, фантастика, HDRip, Любительский одноголосый] pb.wtf

Пугало через торрент pb.wtf

Размер: 1.46 GB | Добавлен: 5 лет 6 мес. назад | Торрент скачан:562 раза
Скачать  

28-02-2014 17:29 Пугало Скачать торрент  

Пугало / Scarecrow
Год выпуска: 2013
Страна: США, Канада / Brightlight Pictures, Sonar Entertainment (II), Lighthouse Pictures
Жанр: ужасы, фантастика
Продолжительность: 01:25:57
Перевод: Любительский одноголосый (Асинхрон)

Режиссер: Шелдон Уилсон



В ролях: Лейси Чаберт, Робин Данн, Ричард Хэрмон, Бриттни Уилсон, Николь Муньос, Джулия Максвелл, Айэйн Белчер, Джерри Вассерман, Карло Маркс, Лэни МакОли.

Описание: Главными героями фильма являются шестеро нерадивых учеников, совершивших различного рода проступки в школе и получивших в качестве наказания задание перевезти пугало с одного фермерского хозяйства на центральную площадь города, где будет проводиться ежегодный фестиваль. Казавшаяся необычайно легкой задача в конечном итоге оборачивается трагедией. Древняя городская легенда о злобном пугале, которой страшили первоклашек, превращается в правду, и теперь главная задача – выжить…

Качество: HDRip
Формат: AVI
Видео кодек: XviD
Аудио кодек: AC3
Видео: 720x400 (1.80:1), 24.000 fps, XviD build 50 ~2233 kbps avg, 0.32 bit/pixel
Аудио: 48 kHz, AC3 Dolby Digital, 2/0 (L,R) ch, ~192 kbps

Общее
Полное имя : H:киноScarecrow.2013.BDRip.avi
Формат : AVI
Формат/Информация : Audio Video Interleave
Размер файла : 1,46 Гбайт
Продолжительность : 1 ч. 25 м.
Общий поток : 2435 Кбит/сек
Программа кодирования : VirtualDubMod 1.5.10.3 | www.virtualdub-fr.org || (build 2550/release)
Библиотека кодирования : VirtualDubMod build 2550/release

Видео
Идентификатор : 0
Формат : MPEG-4 Visual
Профиль формата : Advanced Simple@L5
Параметр BVOP формата : 2
Параметр QPel формата : Нет
Параметр GMC формата : Без точки перехода
Параметр матрицы формата : Default (H.263)
Идентификатор кодека : XVID
Идентификатор кодека/Подсказка : XviD
Продолжительность : 1 ч. 25 м.
Битрейт : 2234 Кбит/сек
Ширина : 720 пикселей
Высота : 400 пикселей
Соотношение сторон : 16:9
Частота кадров : 24,000 кадра/сек
Цветовое пространство : YUV
Субдискретизация насыщенности : 4:2:0
Битовая глубина : 8 бит
Тип развёртки : Прогрессивная
Метод сжатия : С потерями
Бит/(Пиксели*Кадры) : 0.323
Размер потока : 1,34 Гбайт (92%)
Библиотека кодирования : XviD 1.2.1 (UTC 2008-12-04)

Аудио
Идентификатор : 1
Формат : AC-3
Формат/Информация : Audio Coding 3
Расширение режима : CM (complete main)
Параметр Endianness формата : Big
Идентификатор кодека : 2000
Продолжительность : 1 ч. 25 м.
Вид битрейта : Постоянный
Битрейт : 192 Кбит/сек
Каналы : 2 канала
Расположение каналов : Front: L R
Частота : 48,0 КГц
Битовая глубина : 16 бит
Метод сжатия : С потерями
Размер потока : 118 Мбайт (8%)
Выравнивание : Разделение по промежуткам
Продолжительность промежутка : 42 мс. (1,00 видеокадр)
Время предзагрузки промежутка : 500 мс.

pb.wtf



Скачать Пугало через торрент http://pic.kartinco.top/images/6/gj33x.jpg Скачать фильм Пугало через торрент бесплантно в хорошем качестве Описание: Главными героями фильма являются шестеро нерадивых учеников, совершивших различного рода проступки в школе и получивших в ... 9.6 10 16
Торрент: Зарегистрирован [2014-02-28 17:29] · скачан: 562 раз
Статус: T временная
Размер: 1.46 GB
Как cкачать? Как скачать Пугало через торрент | qTorrent

% Раздел Тема Автор DL S | L
T Фильмы (мультфильмы) cо спонсором показа (Новинки AVI/MKV) [ 2.82 GB ] Проклятие пугала / Curse of the Scarecrow [2018 WEB-DL 720p] MVO ["Синема УС"] bober100 Скачать
1 | 0
T Фильмы (мультфильмы) cо спонсором показа (Новинки AVI/MKV) [ 1.37 GB ] Проклятие пугала / Curse of the Scarecrow [2018 WEB-DLRip] MVO ["Синема УС"] bober100 Скачать
1 | 0
T Фильмы (мультфильмы) cо спонсором показа (Новинки AVI/MKV) [ 4.11 GB ] Пугало / Scarecrows [2018 BDRip 720p] MVO ["Синема УС"] bober100 Скачать
1 | 0
T Фильмы (мультфильмы) cо спонсором показа (Новинки AVI/MKV) [ 1.37 GB ] Пугало / Scarecrows [2018 HDRip] MVO ["Синема УС"] bober100 Скачать
2 | 0
Фильмы до 2000 г. [ 1.45 GB ] Пугало / Scarecrow [1973 HDRip] MVO koenig Скачать
1 | 0
Фильмы [HD 720p, 1080p] (Хороший звук DUB, MVO) [ 10.88 GB ] Пугала / Scarecrows [1988 BDRip 1080p by msltel] DVO AVO msltel Скачать
1 | 0
Фильмы [HD 720p, 1080p] (Хороший звук DUB, MVO) [ 3.46 GB ] Пугала / Scarecrows [1988 BDRip 720p by msltel] DVO AVO msltel Скачать
1 | 0


Последний раз редактировалось: coc900 (2014-03-01 08:20), всего редактировалось 1 раз


>> Регистрируемся здесь <<






Отзывы и комментарии о схеме читаем и пишем здесь: ---> Отзывы и комментарии о схеме

Новые благодарочки в телеграм довольных пользователей:
скриншот   скриншот   скриншот   скриншот   скриншот

18-03-2014 17:52 Пугало Скачать торрент  

Жаль зря потраченного времени, еле досмотрел, в конце вообще мотал!!!! Даббер озвучил плохо очень плохо на 3 не больше, а сам фильм 4 с натяжкой потянет!((( я розочарован!!! pb.wtf



05-04-2014 08:44 Пугало Скачать торрент  

там по рейтингу ясно что для тв3 снятоpb.wtf



    Дорогой пользователь! Огромная просьба, поблагодарите релизера, оцените раздачу и оставьте свои комментарий, если Вы скачали Пугало через торрент бесплатно! Внесите свою лепту в развитие PiratBit!
    Комментировать посты могут только пользователи прошедшие не сложную регистрацию
    Показать сообщения:    

    Пугало через торрент
    Скачать бесплатно Пугало
    Пугало скачать торрент
    Пугало смотреть онлайн
    Cкачать фильм Пугало бесплатно
    Пугало скачать торрент в хорошем качестве
    Пугало смотреть онлайн бесплатно в хорошем качестве


    Вы не можете начинать темы
    Вы не можете отвечать на сообщения
    Вы не можете редактировать свои сообщения
    Вы не можете удалять свои сообщения
    Вы не можете голосовать в опросах
    Вы не можете прикреплять файлы к сообщениям
    Вы можете скачивать файлы