Ссылка на приватное зеркало нашего сайта всего за 1$. Внимание количество ограничено!!!

2 сезон

iTunes

1 сезон

1

2 сезон

2 сезон

iTunes

1 сезон

RePack

30

Новинка

ВАЖНО

ИГРА 18+

pack

RePack

MK11
pack

Забери бонус

RePack

jed

!!Акция!!

Alien_Rage

RePack

fifa19

RePack

Assassins Creed: Odyssey

RePack

NEED FOR SPEED™ PAYBACK

4 сезон

9 сезон

Бесстыжие 9 сезон

Все сериалы

все сериалы на PB.wtf

RePack

FAR CRY 5
  

Торн: Соня & Пуганая ворона / Thorne: Sleepyhead & Scaredy Cat / Cезон: 1 / Cерии: 1-6 (6) (Стивен Хопкинс, Бенжамин Росс) [2010 г.,Драма, детектив, BDRip] MVO Sony Turbo pb.wtf

Торн: Соня & Пуганая ворона через торрент pb.wtf

Размер: 2.64 GB | Добавлен: 6 лет 9 мес. назад | Торрент скачан:23 раза
Скачать  

28-02-2014 18:32 Торн: Соня & Пуганая ворона Скачать торрент  

Торн: Соня & Пуганая ворона
Год выпуска: 2010
Страна: Канада, Великобритания 87 Films, Artists Studio, Cité-Amérique, Stagereel
Жанр: Драма, триллер, криминал, детектив
Продолжительность: 6 x ~ 00:44:00
Перевод: Профессиональный, многоголосый Sony Turbo

Режиссер: Стивен Хопкинс Бенжамин Росс
Продюссер: Дуди Эпплтон, Марк Биллинхэм, Грег Дамметт
Сценарий: Дуди Эпплтон, Джим Кибл, Марк Биллинхэм

Премьера в мире: 10 октября 2010 г



В ролях: Дэвид Моррисси, Мартин Батлер, Стивен Кэмпбелл Мур, Джошуа Клоуз, О.Т. Фабенле, Дэниэл Фирн, Мерии Фотсо, Джон Адам Фриман, Эйдан Джиллен, Ли Николас Харрис

Описание: Том Торн - главный персонаж серии бестселлеров английского писателя Марка Биллингэма. "Соня" - первая часть телевизионной версии романов Биллингэма. Это захватывающий триллер о расследовании инспектора Торна загадочной серии убийств, в котором ему помогает единственная выжившая жертва, оказавшаяся после нападения в псевдокоме. Вторая телевизионная история "Пуганая ворона" - мрачный и захватывающий триллер о расследовании инспектором Торном загадочной серии парных убийств, приведший к неожиданному финалу.

Качество: BDRip
Формат: AVI
Видео кодек: XviD
Аудио кодек: MP3
Видео: Xvid 720x400, 25.00fps, 1 166 Kbps
Аудио#1: MPEG Audio Layer 3, 48000Hz, stereo, 128kbps Русский (Sony Turbo)
Аудио#2: MPEG Audio Layer 3, 48000Hz, stereo, 128kbps Английский
Релиз от: to4ka





Complete name : D:28 02 2014thorne bdrip to4ka 400pthorne.s01e01.bdrip.rus.eng.to4ka.tv.avi
Format : AVI
Format/Info : Audio Video Interleave
File size : 450 MiB
Duration : 43mn 47s
Overall bit rate : 1 437 Kbps
Writing application : VirtualDubMod 1.6.0.0 SURROUND (build 2560/release)
Writing library : VirtualDubMod build 2560/release

Video
ID : 0
Format : MPEG-4 Visual
Format profile : Advanced Simple@L5
Format settings, BVOP : 1
Format settings, QPel : No
Format settings, GMC : No warppoints
Format settings, Matrix : Default (MPEG)
Codec ID : XVID
Codec ID/Hint : XviD
Duration : 43mn 47s
Bit rate : 1 166 Kbps
Width : 720 pixels
Height : 400 pixels
Display aspect ratio : 16:9
Frame rate : 25.000 fps
Color space : YUV
Chroma subsampling : 4:2:0
Bit depth : 8 bits
Scan type : Progressive
Compression mode : Lossy
Bits/(Pixel*Frame) : 0.162
Stream size : 365 MiB (81%)
Writing library : XviD 64

Audio #1
ID : 1
Format : MPEG Audio
Format version : Version 1
Format profile : Layer 3
Mode : Joint stereo
Mode extension : MS Stereo
Codec ID : 55
Codec ID/Hint : MP3
Duration : 43mn 47s
Bit rate mode : Constant
Bit rate : 128 Kbps
Channel(s) : 2 channels
Sampling rate : 48.0 KHz
Compression mode : Lossy
Stream size : 40.1 MiB (9%)
Alignment : Aligned on interleaves
Interleave, duration : 40 ms (1.00 video frame)
Interleave, preload duration : 504 ms

Audio #2
ID : 2
Format : MPEG Audio
Format version : Version 1
Format profile : Layer 3
Mode : Joint stereo
Mode extension : MS Stereo
Codec ID : 55
Codec ID/Hint : MP3
Duration : 43mn 47s
Bit rate mode : Constant
Bit rate : 128 Kbps
Channel(s) : 2 channels
Sampling rate : 48.0 KHz
Compression mode : Lossy
Stream size : 40.1 MiB (9%)
Alignment : Aligned on interleaves
Interleave, duration : 40 ms (1.00 video frame)
Interleave, preload duration : 504 ms
Writing library : LAME3.98r
Encoding settings : -m j -V 4 -q 2 -lowpass 17 -b 128

pb.wtf



Скачать Торн: Соня & Пуганая ворона через торрент http://pic.kartinco.top/images/6/i4ri9.jpg Скачать фильм Торн: Соня & Пуганая ворона через торрент бесплантно в хорошем качестве Описание: Том Торн - главный персонаж серии бестселлеров английского писателя Марка Биллингэма. "Соня" - первая часть телевизионной версии ... 7 10 1
Торрент: Зарегистрирован [2014-02-28 18:32] · скачан: 23 раз
Статус: √ проверено
Размер: 2.64 GB
Как cкачать? Как скачать Торн: Соня & Пуганая ворона через торрент | qTorrent

28-11-2019 20:33  

Отключить всю рекламу на сайте

    Дорогой пользователь! Огромная просьба, поблагодарите релизера, оцените раздачу и оставьте свои комментарий, если Вы скачали Торн: Соня & Пуганая ворона через торрент бесплатно! Внесите свою лепту в развитие PiratBit!
    Комментировать посты могут только пользователи прошедшие не сложную регистрацию
    Показать сообщения:    

    Торн: Соня & Пуганая ворона через торрент
    Скачать бесплатно Торн: Соня & Пуганая ворона
    Торн: Соня & Пуганая ворона скачать торрент
    Торн: Соня & Пуганая ворона смотреть онлайн
    Cкачать фильм Торн: Соня & Пуганая ворона бесплатно
    Торн: Соня & Пуганая ворона скачать торрент в хорошем качестве
    Торн: Соня & Пуганая ворона смотреть онлайн бесплатно в хорошем качестве


    Вы не можете начинать темы
    Вы не можете отвечать на сообщения
    Вы не можете редактировать свои сообщения
    Вы не можете удалять свои сообщения
    Вы не можете голосовать в опросах
    Вы не можете прикреплять файлы к сообщениям
    Вы можете скачивать файлы