Всегда рабочее зеркало без VPN и Proxy просто перед .vidak.icu напиши любое слово или цифру, Пример http://f57h.vidak.icu

MVO

2 сезон

1 сезон

1

1 сезон

iTunes

2 сезон

13

1 сезон

Deluxe

pack

Рекомендуем

Пиратка

30

ВАЖНО

RePack

MK11

RePack

jed

RePack

fifa19

RePack

RDR2

RePack

NEED FOR SPEED™ PAYBACK

Кинопоиск HD

6 сезон

 Острые козырьки 6 сезон

Все сериалы

все сериалы на PB.wtf

RePack

FAR CRY 5

Anonymous, нам критически не хватает 5601 руб. на оплату серверов и переферии за Апрель, помоги нам пожалуйста, вся надежда только на тебя. В благодарность мы отключим тебе всю рекламу на сайте!

×
  
Magnet ссылка

Собиратель душ / Коллекционер человеческих душ / The Collector / 1-3 сезоны / Cерии:1-40 (40) (Джонатан А. Розенбаум, Холли Дэйл) [2004-2006 г., Боевик, фантастика, TVRip] MVO pb.wtf

Собиратель душ через торрент pb.wtf

Размер: 14.81 GB | Добавлен: 8 лет 2 мес. назад | Торрент скачан:68 раз
Смотреть онлайн Собиратель душ | Скачать    Ребята, помогите собрать деньги на оплату серверов!!!

28-02-2014 22:06 Собиратель душ Скачать торрент  

Собиратель душ / Коллекционер человеческих душ / The Collector / 1-3 сезоны / Cерии:1-40 (40) Описание: Более 650 лет назад в 14 веке в Нюренберге жил-был Морган Пим, который будучи монахом, полюбил Катрину - служанку семьи, жившей в монастыре. 2 года он не мог решить, что ему важнее - обет или любовь. А когда решил, что всё же любовь, и признался Катрине, оказалось, что и она его любит. Но когда на утро после ночи страстной любви в город нагрянула чума, которая поразила и девушку, от которой она стала умирать, Морган не знал, что делать. Его раздражало, что это вполне могла быть Божья Кара за его нарушение обета. В результате Морган был готов на всё. Тут и подоспел Дьявол. Моргану пришлось продать ему душу за 10 лет их счастья. Но через 10 лет Катрина, как и полагается, умерла (причём неясно, куда она попала - в Рай или Ад, потому как, с одной стороны, она была чиста, с другой - что-то должно было сбалансировать 10 лет счастья), а Дьявол предложил Моргану новую сделку: вместо того, чтобы отправиться в Ад, Морган должен стать собирателем душ других должников, ведь Дьяволу понадобилась в этом помощь. Морган не хотел в Ад и чтобы избежать попадания туда, он становится "Собирателем душ". У него есть всего 48 часов на то, чтобы уговорить своих клиентов, заключивших сделки с дьяволом, отдать ему душу, чтобы не попасть в мучительный Ад. Раз в неделю он получал имя клиента, и за 48 часов сообщал ему, что срок сделки истекает, при этом всё нажитое с помощью сделки начинает рассыпаться. Дьяволу нравятся такие зрелища - наблюдать, как человек теряет всё. А потом Морган должен был забрать душу. В общем, работал он так 650 лет, пытаясь не думать о том, что потерял. Однако, как и полагается, идя за очередной душой на встречу с очередным “клиентом”, он встречает больную девушку-наркоманку - Маю Кандински, поразительно похожую на его давно умершую возлюбленную Катрину. Это становится последней каплей, он не в состоянии больше просто забирать души, не давая хотя бы малейшего шанса этим людям на искупление грехов… А тут ещё его клиент заявил, что ему плевать на всех клиентов, он всего лишь собиратель и пусть катится к чёрту. Что он и сделал - явился к Дьяволу, чтобы изменить условия сделки - получить возможность дать своим клиентам шанс. Сравнительно недавно у Моргана появилась идея. Однако, когда Дьявол выполняет условия сделки, всегда страдает кто-то ещё. Поэтому должники могут попытаться спасти души, если сумеют искупить причинённое их сделкой зло. В результате, если клиент сможет вернуть счастье за 10 лет, которое он забрал у другого человека (или группы людей), то он добьётся искупления. Вот только мало кто захочет взглянуть в лицо своему прошлому и исправить содеянное. Ещё меньшим это удастся. Дьявол ему на это ответил что-то вроде "Что же ты раньше не пришёл, мне уже скучно стало". И бессмертный и всемогущий решает поиграть - он открывает Собирателю маленькую лазейку, но сможет ли тот воспользоваться ею и каждый ли “клиент” сможет обрести прощение своей душе?
Собиратель душ / Сезон: 1 / Серии: 1-14 (14)
Год выпуска: 2004
Страна: Канада No Equal Entertainment Inc., Canadian Television Fund
Жанр: Боевик, драма, детектив, фэнтези, фантастика
Продолжительность: 14 x ~ 00:43:32
Перевод: Профессиональный многоголосый AXN Sci-Fi Россия

Режиссер: Джонатан А. Розенбаум Холли Дэйл Дж.Б. Шугар Патрик Уилльямс Майкл Робинсон Ларри Шугар Энтони Аткинс
Продюссер: Джон Кукси, Али Мэтисон, Мэттью Чипера
Сценарий: Джон Кукси, Али Мэтисон, Кристина Рэй

Премьера в мире: 2 июня 2004



В ролях: Крис Крамер, Эллен Дубин, Колин Каннингэм, Карли Поуп, Эндрю Джексон, Соня Саломяа, Эйдан Драммонд, Она Грауэр, Кристин Шателейн, Маккензи Грей, Даниэлла Евангелиста, Ричард Сайд, Чилтон Крэйн, Анджела Мур, Кили Пурвис, Кайла Хазелвуд, Кристиан Тезьер, Джон Мур, Тришиа Хелфер, Карен Холнесс, Дэвид Коулс, Элли Харви, Кен Крамер,

Описание: Итак, жил-был монах Морган Пим в 14 веке в Нюремберге. Но угораздило его влюбиться в Катрину - служанку семьи, жившей в монастыре. 2 года он не мог решить, что ему важнее - обет или любовь. А когда решил, что всё же любовь, и признался Катрине, оказалось, что и она его любит. В общем, провели они вместе ночь, а наутро, в лучших традициях баффимира, нагрянула чума и Катрина стала от неё умирать. В результате Морган был готов на всё. Его раздражало, что это вполне могла быть Божья Кара за его нарушение обета. Тут и подоспел Дьявол. В результате Морган продал ему душу за 10 лет их счастья. Но через 10 лет Катрина, как и полагается, умерла (причём неясно, куда она попала - в рай или ад, потому как, с одной стороны, она была чиста, с другой что-то должно было сбалансировать 10 лет счастья). И Дьявол сделал Моргана Собирателем Душ, ему понадобилась помощь в этом. Раз в неделю он получал имя клиента, и за 48 часов сообщал, что срок истекает, и всё нажитое с помощью сделки начинает рассыпаться. Дьяволу нравится такие зрелища - наблюдать, как человек теряет всё. А потом Морган должен был забрать душу.

В общем, работал он так 650 лет, пытаясь не думать о том, что потерял, да вот только сериал о нём начался. В результате, как и полагается, он встретил женщину, похожую на Катрину - Маю Кандински. А тут ещё его клиент заявил, что ему плевать на всех клиентов, он всего лишь собиратель и пусть катится к чёрту. Что он и сделал - явился к Дьяволу, чтобы изменить условия сделки - получить возможность дать своим клиентам шанс. Дьявол ему на это ответил что-то вроде "Что же ты раньше не пришёл, мне уже скучно стало". В результате, если клиент сможет вернуть счастье за 10 лет, которое он забрал у другого человека (или группы людей), то он добьётся искупления. Вот только мало кто захочет взглянуть в лицо своему прошлому и исправить содеянное. Ещё меньшим это удастся.

В сериале, кроме Моргана есть ещё главные герои - Мая, бывшая проститутка и наркоманка, чудом спасшаяся от смерти из-за СПИДа, которую наш герой взялся перевоспитывать. Далее, журналистка Джери Слейт, которая хотела взять интервью у его первого клиента, и в результате стала заинтересована в раскрытии тайны Моргана. И, конечно же, сам Дьявол, которого всегда играют разные актёры в лучших традиция Изначального Зла - то он предстаёт в виде бомжа, то в виде маленькой девочки, то он таксист, то разносчик пиццы.

Качество: TVRip
Формат: AVI
Видео кодек: XviD
Аудио кодек: MP3
Видео: Xvid 512x384, 23.98fps, 936 Kbps
Аудио#1: MPEG Audio Layer 3, 48000Hz, stereo, 128kbps
Аудио#2: MPEG Audio Layer 3, 48000Hz, stereo, 160kbps
Релиз от: Dante13


General
Complete name : D:28 02 2014Sobiratel.dush.(3.sezona.40.serij.iz.40).2004-2006.XviD.TVRipSobiratel.dush.(1.sezon.serii.01-14).2004-2005.XviD.TVRipSobiratel.dush.(1.sezon.01.seriya.iz.14).2004.XviD.TVRip.avi
Format : AVI
Format/Info : Audio Video Interleave
File size : 392 MiB
Duration : 44mn 17s
Overall bit rate : 1 238 Kbps
Writing application : VirtualDubMod 1.5.10.2 (build 2542/release)
Writing library : VirtualDubMod build 2542/release

Video
ID : 0
Format : MPEG-4 Visual
Format profile : Advanced Simple@L5
Format settings, BVOP : 2
Format settings, QPel : No
Format settings, GMC : No warppoints
Format settings, Matrix : Default (H.263)
Muxing mode : Packed bitstream
Codec ID : XVID
Codec ID/Hint : XviD
Duration : 44mn 17s
Bit rate : 936 Kbps
Width : 512 pixels
Height : 384 pixels
Display aspect ratio : 4:3
Frame rate : 23.976 fps
Color space : YUV
Chroma subsampling : 4:2:0
Bit depth : 8 bits
Scan type : Progressive
Compression mode : Lossy
Bits/(Pixel*Frame) : 0.199
Stream size : 297 MiB (76%)
Writing library : XviD 1.1.0 (UTC 2005-11-22)

Audio #1
ID : 1
Format : MPEG Audio
Format version : Version 1
Format profile : Layer 3
Mode : Joint stereo
Mode extension : MS Stereo
Codec ID : 55
Codec ID/Hint : MP3
Duration : 44mn 17s
Bit rate mode : Constant
Bit rate : 128 Kbps
Channel(s) : 2 channels
Sampling rate : 48.0 KHz
Compression mode : Lossy
Stream size : 40.6 MiB (10%)
Alignment : Aligned on interleaves
Interleave, duration : 42 ms (1.00 video frame)
Interleave, preload duration : 504 ms

Audio #2
ID : 2
Format : MPEG Audio
Format version : Version 1
Format profile : Layer 3
Mode : Joint stereo
Mode extension : MS Stereo
Codec ID : 55
Codec ID/Hint : MP3
Duration : 44mn 17s
Bit rate mode : Constant
Bit rate : 160 Kbps
Channel(s) : 2 channels
Sampling rate : 48.0 KHz
Compression mode : Lossy
Stream size : 50.7 MiB (13%)
Alignment : Split accross interleaves
Interleave, duration : 42 ms (1.00 video frame)
Interleave, preload duration : 500 ms
Собиратель душ / Сезон: 2 / Серии: 1-13 (13)
Год выпуска: 2005
Страна: Канада No Equal Entertainment Inc., Canadian Television Fund
Жанр: Боевик, драма, детектив, фэнтези, фантастика
Продолжительность: 13 x ~ 00:43:32
Перевод: Профессиональный многоголосый AXN Sci-Fi Россия

Режиссер: Джонатан А. Розенбаум Холли Дэйл Дж.Б. Шугар Патрик Уилльямс Майкл Робинсон Ларри Шугар Энтони Аткинс
Продюссер: Джон Кукси, Али Мэтисон, Мэттью Чипера
Сценарий: Джон Кукси, Али Мэтисон, Кристина Рэй

Премьера в мире: 2 июня 2004



В ролях: Крис Крамер, Эллен Дубин, Колин Каннингэм, Карли Поуп, Эндрю Джексон, Соня Саломяа, Эйдан Драммонд, Она Грауэр, Кристин Шателейн, Маккензи Грей, Даниэлла Евангелиста, Ричард Сайд, Чилтон Крэйн, Анджела Мур, Кили Пурвис, Кайла Хазелвуд, Кристиан Тезьер, Джон Мур, Тришиа Хелфер, Карен Холнесс, Дэвид Коулс, Элли Харви, Кен Крамер

Описание: Собиратель душ по имени Морган Пим заключает сделку с дьяволом… Вместо того, чтобы переправлять души в ад, он, в течение сорока восьми часов, пытается найти для человека искупление. Когда-то сам Морган был монахом, но ради своей возлюбленной продал душу дьяволу, и если бы не странная слабость дьявола к бывшему монаху, так же оказался бы в аду. Но если душа Моргана не горит в огне преисподней, то вполне возможно, что его место заняла его возлюбленная… Дьявол ведь должен был кого-нибудь забрать вместо него…

Качество: TVRip
Формат: AVI
Видео кодек: XviD
Аудио кодек: MP3
Видео: Xvid 512x384, 23.98fps, 955 Kbps
Аудио#1: MPEG Audio Layer 3, 48000Hz, stereo, 128kbps
Аудио#2: MPEG Audio Layer 3, 48000Hz, stereo, 160kbps
Релиз от: Dante13


General
Complete name : D:28 02 2014Sobiratel.dush.(3.sezona.40.serij.iz.40).2004-2006.XviD.TVRipSobiratel.dush.(2.sezon.serii.01-13).2006.XviD.TVRipSobiratel.dush.(2.sezon.01.seriya.iz.13).2006.XviD.TVRip.avi
Format : AVI
Format/Info : Audio Video Interleave
File size : 391 MiB
Duration : 43mn 32s
Overall bit rate : 1 257 Kbps
Writing application : VirtualDubMod 1.5.10.2 (build 2542/release)
Writing library : VirtualDubMod build 2542/release

Video
ID : 0
Format : MPEG-4 Visual
Format profile : Advanced Simple@L5
Format settings, BVOP : 2
Format settings, QPel : No
Format settings, GMC : No warppoints
Format settings, Matrix : Default (H.263)
Muxing mode : Packed bitstream
Codec ID : XVID
Codec ID/Hint : XviD
Duration : 43mn 32s
Bit rate : 955 Kbps
Width : 512 pixels
Height : 384 pixels
Display aspect ratio : 4:3
Frame rate : 23.976 fps
Color space : YUV
Chroma subsampling : 4:2:0
Bit depth : 8 bits
Scan type : Progressive
Compression mode : Lossy
Bits/(Pixel*Frame) : 0.203
Stream size : 297 MiB (76%)
Writing library : XviD 1.1.0 (UTC 2005-11-22)

Audio #1
ID : 1
Format : MPEG Audio
Format version : Version 1
Format profile : Layer 3
Mode : Joint stereo
Mode extension : MS Stereo
Codec ID : 55
Codec ID/Hint : MP3
Duration : 43mn 32s
Bit rate mode : Constant
Bit rate : 128 Kbps
Channel(s) : 2 channels
Sampling rate : 48.0 KHz
Compression mode : Lossy
Stream size : 39.9 MiB (10%)
Alignment : Aligned on interleaves
Interleave, duration : 42 ms (1.00 video frame)
Interleave, preload duration : 504 ms

Audio #2
ID : 2
Format : MPEG Audio
Format version : Version 1
Format profile : Layer 3
Mode : Joint stereo
Mode extension : MS Stereo
Codec ID : 55
Codec ID/Hint : MP3
Duration : 43mn 32s
Bit rate mode : Constant
Bit rate : 160 Kbps
Channel(s) : 2 channels
Sampling rate : 48.0 KHz
Compression mode : Lossy
Stream size : 49.8 MiB (13%)
Alignment : Split accross interleaves
Interleave, duration : 42 ms (1.00 video frame)
Interleave, preload duration : 500 ms
Собиратель душ / Сезон: 3 / Серии: 1-13 (13)
Год выпуска: 2006
Страна: Канада No Equal Entertainment Inc., Canadian Television Fund
Жанр: Боевик, драма, детектив, фэнтези, фантастика
Продолжительность: 13 x ~ 00:43:32
Перевод: Профессиональный многоголосый AXN Sci-Fi Россия

Режиссер: Джонатан А. Розенбаум Холли Дэйл Дж.Б. Шугар Патрик Уилльямс Майкл Робинсон Ларри Шугар Энтони Аткинс
Продюссер: Джон Кукси, Али Мэтисон, Мэттью Чипера
Сценарий: Джон Кукси, Али Мэтисон, Кристина Рэй

Премьера в мире: 2 июня 2004



В ролях: Крис Крамер, Эллен Дубин, Колин Каннингэм, Карли Поуп, Эндрю Джексон, Соня Саломяа, Эйдан Драммонд, Она Грауэр, Кристин Шателейн, Маккензи Грей, Даниэлла Евангелиста, Ричард Сайд, Чилтон Крэйн, Анджела Мур, Кили Пурвис, Кайла Хазелвуд, Кристиан Тезьер, Джон Мур, Тришиа Хелфер, Карен Холнесс, Дэвид Коулс, Элли Харви, Кен Крамер,

Описание: Собиратель душ по имени Морган Пим заключает сделку с дьяволом… Вместо того, чтобы переправлять души в ад, он, в течение сорока восьми часов, пытается найти для человека искупление. Когда-то сам Морган был монахом, но ради своей возлюбленной продал душу дьяволу, и если бы не странная слабость дьявола к бывшему монаху, так же оказался бы в аду. Но если душа Моргана не горит в огне преисподней, то вполне возможно, что его место заняла его возлюбленная… Дьявол ведь должен был кого-нибудь забрать вместо него…

Качество: TVRip
Формат: AVI
Видео кодек: XviD
Аудио кодек: MP3
Видео: Xvid 512x384, 23.98fps, 957 Kbps Kbps
Аудио#1: MPEG Audio Layer 3, 48000Hz, stereo, 128kbps
Аудио#2: MPEG Audio Layer 3, 48000Hz, stereo, 160kbps
Релиз от: Dante13


General
Complete name : D:28 02 2014Sobiratel.dush.(3.sezona.40.serij.iz.40).2004-2006.XviD.TVRipSobiratel.dush.(3.sezon.serii.01-13).2006.XviD.TVRipSobiratel.dush.(3.sezon.01.seriya.iz.13).2006.XviD.TVRip.avi
Format : AVI
Format/Info : Audio Video Interleave
File size : 392 MiB
Duration : 43mn 29s
Overall bit rate : 1 259 Kbps
Writing application : VirtualDubMod 1.6.0.0 SURROUND (build 2560/release)
Writing library : VirtualDubMod build 2560/release

Video
ID : 0
Format : MPEG-4 Visual
Format profile : Advanced Simple@L5
Format settings, BVOP : 2
Format settings, QPel : No
Format settings, GMC : No warppoints
Format settings, Matrix : Default (H.263)
Muxing mode : Packed bitstream
Codec ID : XVID
Codec ID/Hint : XviD
Duration : 43mn 29s
Bit rate : 957 Kbps
Width : 512 pixels
Height : 384 pixels
Display aspect ratio : 4:3
Frame rate : 23.976 fps
Color space : YUV
Chroma subsampling : 4:2:0
Bit depth : 8 bits
Scan type : Progressive
Compression mode : Lossy
Bits/(Pixel*Frame) : 0.203
Stream size : 298 MiB (76%)
Writing library : XviD 1.0.3 (UTC 2004-12-20)

Audio #1
ID : 1
Format : MPEG Audio
Format version : Version 1
Format profile : Layer 3
Mode : Joint stereo
Mode extension : MS Stereo
Codec ID : 55
Codec ID/Hint : MP3
Duration : 43mn 29s
Bit rate mode : Constant
Bit rate : 128 Kbps
Channel(s) : 2 channels
Sampling rate : 48.0 KHz
Compression mode : Lossy
Stream size : 39.8 MiB (10%)
Alignment : Aligned on interleaves
Interleave, duration : 42 ms (1.00 video frame)
Interleave, preload duration : 504 ms

Audio #2
ID : 2
Format : MPEG Audio
Format version : Version 1
Format profile : Layer 3
Mode : Joint stereo
Mode extension : MS Stereo
Codec ID : 55
Codec ID/Hint : MP3
Duration : 43mn 29s
Bit rate mode : Constant
Bit rate : 160 Kbps
Channel(s) : 2 channels
Sampling rate : 48.0 KHz
Compression mode : Lossy
Stream size : 49.8 MiB (13%)
Alignment : Split accross interleaves
Interleave, duration : 42 ms (1.00 video frame)
Interleave, preload duration : 500 ms
pb.wtf



Скачать Собиратель душ через торрент https://pic1.kartinco.top/images/61/mn971.jpg Скачать, смотреть онлайн Собиратель душ бесплантно в хорошем качестве Описание: Более 650 лет назад в 14 веке в Нюренберге жил-был Морган Пим, который будучи монахом, полюбил Катрину - служанку семьи, жившей в ... 10 10 1
Info! Золотая раздача, скачанное не засчитывается.
Торрент: Зарегистрирован [2014-02-28 22:06] · скачан: 68 раз
Статус: √ проверено
Размер: 14.81 GB
Как cкачать? Как скачать Собиратель душ через торрент | UTorrent



Последний раз редактировалось: lug30 (2014-03-01 05:07), всего редактировалось 9 раз(а)

28-11-2019 20:33  

Отключить всю рекламу на сайте

28-02-2014 22:22 Собиратель душ Скачать торрент  

шрифт огонь...pb.wtf



01-03-2014 00:07 Собиратель душ Скачать торрент  

FabRyo писал(а):

шрифт огонь...

pb.wtf



01-03-2014 07:41 Собиратель душ Скачать торрент  

Мне вообще с бодуна привиделось не "собиратель", а "обсиратель".
Пятница тяжёлое время...pb.wtf



    Дорогой пользователь! Огромная просьба, поблагодарите релизера, оцените раздачу и оставьте свои комментарий, если Вы скачали Собиратель душ через торрент бесплатно!
    Комментировать посты могут только пользователи прошедшие не сложную регистрацию
    Показать сообщения:    

    Собиратель душ через торрент
    Скачать бесплатно Собиратель душ
    Собиратель душ скачать торрент
    Собиратель душ смотреть онлайн
    Cкачать фильм Собиратель душ бесплатно
    Собиратель душ скачать торрент в хорошем качестве
    Собиратель душ смотреть онлайн бесплатно в хорошем качестве


    Вы не можете начинать темы
    Вы не можете отвечать на сообщения
    Вы не можете редактировать свои сообщения
    Вы не можете удалять свои сообщения
    Вы не можете голосовать в опросах
    Вы не можете прикреплять файлы к сообщениям
    Вы можете скачивать файлы