Ссылка на приватное зеркало нашего сайта всего за 1$. Внимание количество ограничено!!!

2 сезон

iTunes

1 сезон

1

iTunes

iTunes

iTunes

1 сезон

RePack

30

ИГРА 18+

pack

ВАЖНО

!!Акция!!

Alien_RageХит недели

RePack

MK11
pack

Забери бонус

RePack

jed

!!Акция!!

Alien_Rage

RePack

fifa19

RePack

Assassins Creed: Odyssey

RePack

NEED FOR SPEED™ PAYBACK

4 сезон

9 сезон

Бесстыжие 9 сезон

Все сериалы

все сериалы на PB.wtf

RePack

FAR CRY 5
  

Зомбэкс / Zombex (Джесси Дэйтон) [2013, ужасы, триллер, HDRip]VO[den904] pb.wtf

Зомбэкс через торрент pb.wtf

Размер: 1.36 GB | Добавлен: 6 лет 7 мес. назад | Торрент скачан:172 раза
Скачать  

01-03-2014 16:07 Зомбэкс Скачать торрент  


Зомбэкс / Zombex

«Evil wears many faces»

  • Год выпуска:2013
  • Страна:США
  • Жанр: ужасы, триллер

  • Продолжительность: 01:20:18
  • Перевод: Любительский (одноголосый) [den904]

  • Субтитры: Нет
  • Режиссер:Джесси Дэйтон / Jesse Dayton
  • В ролях: Лью Темпл (Aldous Huxtable), Дэвид Кристофер (Charlie Thibideaux), Малкольм МакДауэлл (Dr. Soulis), Сид Хэйг (The Commander), Кори Фельдман (Dr. Jamison), Джон До (Seamus O'Connor), Эмили Кэй (Katie Ann), Том Арая (Walk-away Man), Кинки Фридман (Staff Sgt. James), Эрик Андерсон (Private Garrison), Ross Bautsch (Dylan), James Boisvenue (Street Dealer)
    • Описание:
      После природного катаклизма, в помощь людям, находящимся во власти стресса, было разработано новое лекарство, которое эффективно изменяло людей... но в лучшую ли сторону?

    • Качество:HDRip
    • Формат:AVI
    • Видео кодек: XviD
    • Аудио кодек:MP3 / AC3
    • Видео: 720x304 (2.35:1), 2090 kbps, 23,976 fps
    • Аудио №1: AC3 / 2.0 / 48 kHz / 192 kbps / 16 bit/Russian
      Аудио №2: MP3 / 2.0 / 48 kHz / 128 kbps /English


    Код:

    General
    Complete name                            : D:ТорентыZombex.2013.L1.HDRip.1400mb.avi
    Format                                   : AVI
    Format/Info                              : Audio Video Interleave
    File size                                : 1.36 GiB
    Duration                                 : 1h 20mn
    Overall bit rate                         : 2 424 Kbps
    Writing application                      : VirtualDubMod 1.5.10.2 (build 2540/release)
    Writing library                          : VirtualDubMod build 2540/release

    Video
    ID                                       : 0
    Format                                   : MPEG-4 Visual
    Format profile                           : Advanced Simple@L5
    Format settings, BVOP                    : 1
    Format settings, QPel                    : Yes
    Format settings, GMC                     : No warppoints
    Format settings, Matrix                  : Custom
    Codec ID                                 : XVID
    Codec ID/Hint                            : XviD
    Duration                                 : 1h 20mn
    Bit rate                                 : 2 090 Kbps
    Width                                    : 720 pixels
    Height                                   : 304 pixels
    Display aspect ratio                     : 2.35:1
    Frame rate                               : 23.976 fps
    Color space                              : YUV
    Chroma subsampling                       : 4:2:0
    Bit depth                                : 8 bits
    Scan type                                : Progressive
    Compression mode                         : Lossy
    Bits/(Pixel*Frame)                       : 0.398
    Stream size                              : 1.17 GiB (86%)
    Writing library                          : XviD 73

    Audio #1
    ID                                       : 1
    Format                                   : AC-3
    Format/Info                              : Audio Coding 3
    Mode extension                           : CM (complete main)
    Codec ID                                 : 2000
    Duration                                 : 1h 20mn
    Bit rate mode                            : Constant
    Bit rate                                 : 192 Kbps
    Channel(s)                               : 2 channels
    Channel positions                        : Front: L R
    Sampling rate                            : 48.0 KHz
    Bit depth                                : 16 bits
    Compression mode                         : Lossy
    Stream size                              : 110 MiB (8%)
    Alignment                                : Split accross interleaves
    Interleave, duration                     : 42 ms (1.00 video frame)
    Interleave, preload duration             : 500 ms

    Audio #2
    ID                                       : 2
    Format                                   : MPEG Audio
    Format version                           : Version 1
    Format profile                           : Layer 3
    Codec ID                                 : 55
    Codec ID/Hint                            : MP3
    Duration                                 : 1h 20mn
    Bit rate mode                            : Constant
    Bit rate                                 : 128 Kbps
    Channel(s)                               : 2 channels
    Sampling rate                            : 48.0 KHz
    Compression mode                         : Lossy
    Stream size                              : 73.5 MiB (5%)
    Alignment                                : Aligned on interleaves
    Interleave, duration                     : 42 ms (1.00 video frame)
    Interleave, preload duration             : 504 ms

    Скриншоты:

    Трейлеры к фильмам [2014]
    © Оформление by Raven pb.wtf



  • Скачать Зомбэкс через торрент http://pic.kartinco.top/images/6/ordi9.jpg Скачать фильм Зомбэкс через торрент бесплантно в хорошем качестве Описание:После природного катаклизма, в помощь людям, находящимся во власти стресса, было разработано новое лекарство, которое эффективно ... 10 10 5
    Торрент: Зарегистрирован [2014-03-01 16:07] · скачан: 172 раз
    Статус: T временная
    Размер: 1.36 GB
    Как cкачать? Как скачать Зомбэкс через торрент | qTorrent

    28-11-2019 20:33  

    Отключить всю рекламу на сайте

      Дорогой пользователь! Огромная просьба, поблагодарите релизера, оцените раздачу и оставьте свои комментарий, если Вы скачали Зомбэкс через торрент бесплатно! Внесите свою лепту в развитие PiratBit!
      Комментировать посты могут только пользователи прошедшие не сложную регистрацию
      Показать сообщения:    

      Зомбэкс через торрент
      Скачать бесплатно Зомбэкс
      Зомбэкс скачать торрент
      Зомбэкс смотреть онлайн
      Cкачать фильм Зомбэкс бесплатно
      Зомбэкс скачать торрент в хорошем качестве
      Зомбэкс смотреть онлайн бесплатно в хорошем качестве


      Вы не можете начинать темы
      Вы не можете отвечать на сообщения
      Вы не можете редактировать свои сообщения
      Вы не можете удалять свои сообщения
      Вы не можете голосовать в опросах
      Вы не можете прикреплять файлы к сообщениям
      Вы можете скачивать файлы