1 сезон

1 сезон

iTunes

1

КиноПоиск HD

Кинопоиск HD

iTunes

13

1 сезон

RePack

30

Ultimate

ВАЖНО

ИГРА 18+

pack

RePack

MK11
pack

Легкие деньги

RePack

jed

RePack

fifa19

RePack

RDR2

RePack

NEED FOR SPEED™ PAYBACK

4 сезон

9 сезон

Бесстыжие 9 сезон

Все сериалы

все сериалы на PB.wtf

RePack

FAR CRY 5
  
Magnet ссылка

Миссия «Серенити» / Serenity (Джосс Уидон) [2005, фантастика, боевик, триллер, приключения, HDRip-AVC] DUB [Лицензия] + Original / от R.G. PiratFilms pb.wtf

Миссия «Серенити» через торрент pb.wtf

Размер: 2.18 GB | Добавлен: 7 лет 1 мес. назад | Торрент скачан:306 раз
Скачать  

01-03-2014 16:32 Миссия «Серенити» Скачать торрент  

Миссия «Серенити» / Serenity
«Хорошие, плохие, злые»



Год выпуска: 2005
Страна: США
Жанр: фантастика, боевик, триллер, приключения
Продолжительность: 01:59:02
Перевод: Профессиональный (Дубляж) [Лицензия]
Оригинальная дорожка: Английская

Режиссер: Джосс Уидон

В ролях: Нэйтан Филлион, Джина Торрес, Алан Тьюдик, Морена Баккарин, Адам Болдуин, Джуэл Стэйт, Шон Маэр, Саммер Глау, Рон Гласс, Чиветель Эджиофор

Описание: Космический «морской волк» и ветеран Гражданской Галактической войны Малькольм «Мэл» Рейнольдс — теперь всего лишь капитан транспортного корабля. Когда они взяли на борт пассажиров — молодого доктора и его странную сестру с телепатическими способностями, ни он, ни его товарищи не предполагали, в какую историю ввяжутся. Спасаясь сразу от нескольких могущественных врагов — и от военных сил тоталитарного Вселенского Альянса, и от ужасных каннибалов Жнецов, команда корабля даже не догадывалась, какая угроза скрывается на борту «Серенити».

|

Качество: HDRip-AVC (Rip by Demonessa)
Исходник: BDRip 1080p
Формат: MKV
Видео кодек: H.264
Аудио кодек: AC3
Видео: H.264, 1024*436, 23,976 кадр/сек, 1848 Кбит/сек, 0.173 Бит/(Пиксели*Кадры)
Аудио 1: AC3, 384 Кбит/сек, 6 каналов, 48,0 КГц
Аудио 2: AC3, 384 Кбит/сек, 6 каналов, 48,0 КГц

Код:


Код:

Общее
Уникальный идентификатор         : 249436937527255094631484130079833813456 (0xBBA7CE85553A2A5A9CB5CD48A6CF71D0)
Полное имя                       : G:VideoRip by DemonessaSerenity Rip by Demonessa.mkv
Формат                           : Matroska
Размер файла                     : 2,18 Гбайт
Продолжительность                : 1 ч. 59 м.
Общий поток                      : 2616 Кбит/сек
Дата кодирования                 : UTC 2014-03-01 07:27:30
Программа кодирования            : mkvmerge v6.5.0 ('Isn't she lovely') built on Oct 20 2013 12:50:05
Библиотека кодирования           : libebml v1.3.0 + libmatroska v1.4.1

Видео
Идентификатор                    : 1
Формат                           : AVC
Формат/Информация                : Advanced Video Codec
Профиль формата                  : High@L4.1
Параметр CABAC формата           : Да
Параметр ReFrames формата        : 12 кадры
Идентификатор кодека             : V_MPEG4/ISO/AVC
Продолжительность                : 1 ч. 59 м.
Битрейт                          : 1848 Кбит/сек
Ширина                           : 1024 пикс.
Высота                           : 436 пикс.
Соотношение сторон               : 2,35:1
Частота кадров                   : 23,976 кадр/сек
Цветовое пространство            : YUV
Подвыборка цветности             : 4:2:0
Битовая глубина                  : 8 бит
Тип развёртки                    : Прогрессивная
Бит/(Пиксели*Кадры)              : 0.173
Размер потока                    : 1,49 Гбайт (69%)
Заголовок                        : Rip by Demonessa
Библиотека кодирования           : x264 core 138 r2358 9e941d1
Настройки программы              : cabac=1 / ref=12 / deblock=1:-2:-1 / analyse=0x3:0x113 / me=umh / subme=9 / psy=1 / psy_rd=1.00:0.00 / mixed_ref=1 / me_range=32 / chroma_me=1 / trellis=2 / 8x8dct=1 / cqm=0 / deadzone=21,11 / fast_pskip=1 / chroma_qp_offset=-2 / threads=4 / lookahead_threads=1 / sliced_threads=0 / nr=0 / decimate=1 / interlaced=0 / bluray_compat=0 / constrained_intra=0 / bframes=10 / b_pyramid=2 / b_adapt=2 / b_bias=0 / direct=1 / weightb=1 / open_gop=0 / weightp=2 / keyint=240 / keyint_min=23 / scenecut=40 / intra_refresh=0 / rc_lookahead=40 / rc=2pass / mbtree=1 / bitrate=1848 / ratetol=1.0 / qcomp=0.75 / qpmin=10 / qpmax=51 / qpstep=4 / cplxblur=20.0 / qblur=0.5 / ip_ratio=1.40 / aq=1:1.00
Язык                             : English

Аудио #1
Идентификатор                    : 2
Формат                           : AC-3
Формат/Информация                : Audio Coding 3
Расширение режима                : CM (complete main)
Идентификатор кодека             : A_AC3
Продолжительность                : 1 ч. 59 м.
Вид битрейта                     : Постоянный
Битрейт                          : 384 Кбит/сек
Канал(ы)                         : 6 канала(ов)
Расположение каналов             : Front: L C R, Side: L R, LFE
Частота                          : 48,0 КГц
Битовая глубина                  : 16 бит
Метод сжатия                     : С потерями
Размер потока                    : 327 Мбайт (15%)
Язык                             : Russian

Аудио #2
Идентификатор                    : 3
Формат                           : AC-3
Формат/Информация                : Audio Coding 3
Расширение режима                : CM (complete main)
Идентификатор кодека             : A_AC3
Продолжительность                : 1 ч. 59 м.
Вид битрейта                     : Постоянный
Битрейт                          : 384 Кбит/сек
Канал(ы)                         : 6 канала(ов)
Расположение каналов             : Front: L C R, Side: L R, LFE
Частота                          : 48,0 КГц
Битовая глубина                  : 16 бит
Метод сжатия                     : С потерями
Размер потока                    : 327 Мбайт (15%)
Язык                             : English

pb.wtf



Скачать Миссия «Серенити» через торрент https://pic.kartinco.top/images/6/3vb9a.jpg Скачать фильм Миссия «Серенити» через торрент бесплантно в хорошем качестве Описание: Космический «морской волк» и ветеран Гражданской Галактической войны Малькольм «Мэл» Рейнольдс — теперь всего лишь капитан ... 10 10 25
Info! Золотая раздача, скачанное не засчитывается.
Торрент: Зарегистрирован [2014-03-01 16:32] · скачан: 306 раз
Статус: √ проверено
Размер: 2.18 GB
Как cкачать? Как скачать Миссия «Серенити» через торрент | UTorrent

28-11-2019 20:33  

Отключить всю рекламу на сайте

    Дорогой пользователь! Огромная просьба, поблагодарите релизера, оцените раздачу и оставьте свои комментарий, если Вы скачали Миссия «Серенити» через торрент бесплатно! Внесите свою лепту в развитие PiratBit!
    Комментировать посты могут только пользователи прошедшие не сложную регистрацию
    Показать сообщения:    

    Миссия «Серенити» через торрент
    Скачать бесплатно Миссия «Серенити»
    Миссия «Серенити» скачать торрент
    Миссия «Серенити» смотреть онлайн
    Cкачать фильм Миссия «Серенити» бесплатно
    Миссия «Серенити» скачать торрент в хорошем качестве
    Миссия «Серенити» смотреть онлайн бесплатно в хорошем качестве


    Вы не можете начинать темы
    Вы не можете отвечать на сообщения
    Вы не можете редактировать свои сообщения
    Вы не можете удалять свои сообщения
    Вы не можете голосовать в опросах
    Вы не можете прикреплять файлы к сообщениям
    Вы можете скачивать файлы