2 сезон

iTunes

MVO

1

2 сезон

iTunes

iTunes

1 сезон

RePack

30

Новинка

ВАЖНО

ИГРА 18+

pack

RePack

MK11
pack

Легкие деньги

RePack

jed

RePack

fifa19

RePack

RDR2

RePack

NEED FOR SPEED™ PAYBACK

4 сезон

9 сезон

Бесстыжие 9 сезон

Все сериалы

все сериалы на PB.wtf

RePack

FAR CRY 5

Anonymous, доброй ночи, мы не успеваем собрать деньги на оплату серверов за декабрь и январь, помогите нам пожалуйста в это трудное время. В качестве благодарности мы отключим Вам всю рекламу на сайте (укажите свой ник в строку Ваше имя)!

×
  
Magnet ссылка

Я, снова я и мама / Les garçons et Guillaume, à table! (Гийом Гальенн) [2013 г., комедия, BDRip, Профессиональный многоголосый, Лицензия] pb.wtf

Я, снова я и мама через торрент pb.wtf

Размер: 1.46 GB | Добавлен: 6 лет 10 мес. назад | Торрент скачан:642 раза
Скачать  

01-03-2014 16:35 Я, снова я и мама Скачать торрент  

Я снова я и мама / Les garçons et Guillaume à table!
Год выпуска: 2013
Страна: Франция, Бельгия / LGM Productions, Rectangle Productions, Don't Be Shy Productions
Жанр: комедия
Продолжительность: 01:26:32
Перевод: Профессиональный многоголосый,закадровый (Лицензия)

Режиссер: Гийом Гальенн



В ролях: Гийом Гальенн, Андре Маркон, Франсуаза Фабиан, Нану Гарсия, Дайан Крюгер, Реда Катеб, Гёц Отто, Бриджитт Катийон, Кэрол Бреннер, Чарли Энсон,

Описание: Гийом настолько боготворит свою мамочку, что всячески подражает ее манерам и поведению. Странные интересы, необъяснимые действия заставляют окружающих думать, что все не так просто в жизни молодого человека

Качество: BDRip (Рип с Blu-ray 1080p AVC DTS-HD 5.1)
Формат: AVI
Видео кодек: XviD
Аудио кодек: AC3
Видео: 720x304 (2.37:1), 24.000 fps, XviD build 50 ~1963 kbps avg, 0.37 bit/pixel
Аудио: 48 kHz, AC3 Dolby Digital, 3/2 (L,C,R,l,r) + LFE ch, ~448 kbps


Общее
Полное имя : H:киноЯ, снова я и мама.2013.BDRip.avi
Формат : AVI
Формат/Информация : Audio Video Interleave
Размер файла : 1,46 Гбайт
Продолжительность : 1 ч. 26 м.
Общий поток : 2421 Кбит/сек
Программа кодирования : VirtualDubMod 1.5.10.3 | www.virtualdub-fr.org || (build 2550/release)
Библиотека кодирования : VirtualDubMod build 2550/release

Видео
Идентификатор : 0
Формат : MPEG-4 Visual
Профиль формата : Advanced Simple@L5
Параметр BVOP формата : 2
Параметр QPel формата : Нет
Параметр GMC формата : Без точки перехода
Параметр матрицы формата : Default (H.263)
Идентификатор кодека : XVID
Идентификатор кодека/Подсказка : XviD
Продолжительность : 1 ч. 26 м.
Битрейт : 1963 Кбит/сек
Ширина : 720 пикселей
Высота : 304 пикселя
Соотношение сторон : 2,35:1
Частота кадров : 24,000 кадра/сек
Цветовое пространство : YUV
Субдискретизация насыщенности : 4:2:0
Битовая глубина : 8 бит
Тип развёртки : Прогрессивная
Метод сжатия : С потерями
Бит/(Пиксели*Кадры) : 0.374
Размер потока : 1,19 Гбайт (81%)
Библиотека кодирования : XviD 1.2.1 (UTC 2008-12-04)

Аудио
Идентификатор : 1
Формат : AC-3
Формат/Информация : Audio Coding 3
Расширение режима : CM (complete main)
Параметр Endianness формата : Big
Идентификатор кодека : 2000
Продолжительность : 1 ч. 26 м.
Вид битрейта : Постоянный
Битрейт : 448 Кбит/сек
Каналы : 6 каналов
Расположение каналов : Front: L C R, Side: L R, LFE
Частота : 48,0 КГц
Битовая глубина : 16 бит
Метод сжатия : С потерями
Размер потока : 277 Мбайт (19%)
Выравнивание : Разделение по промежуткам
Продолжительность промежутка : 42 мс. (1,00 видеокадр)
Время предзагрузки промежутка : 500 мс.

pb.wtf



Скачать Я, снова я и мама через торрент https://pic.kartinco.top/images/6/3xqhk.jpg Скачать фильм Я, снова я и мама через торрент бесплантно в хорошем качестве Описание: Гийом настолько боготворит свою мамочку, что всячески подражает ее манерам и поведению. Странные интересы, необъяснимые действия ... 9.9 10 20
Торрент: Зарегистрирован [2014-03-01 16:35] · скачан: 642 раз
Статус: √ проверено
Размер: 1.46 GB
Как cкачать? Как скачать Я, снова я и мама через торрент | UTorrent

% Раздел Тема Автор DL S | L
Фильмы [HD 720p, 1080p] (Хороший звук DUB, MVO) [ 4.94 GB ] Я снова я и мама / Les garçons et Guillaume à table! [2013 BDRip 720p многоголосый ] кэп Скачать
1 | 0

28-11-2019 20:33  

Отключить всю рекламу на сайте

    Дорогой пользователь! Огромная просьба, поблагодарите релизера, оцените раздачу и оставьте свои комментарий, если Вы скачали Я, снова я и мама через торрент бесплатно! Внесите свою лепту в развитие PiratBit!
    Комментировать посты могут только пользователи прошедшие не сложную регистрацию
    Показать сообщения:    

    Я, снова я и мама через торрент
    Скачать бесплатно Я, снова я и мама
    Я, снова я и мама скачать торрент
    Я, снова я и мама смотреть онлайн
    Cкачать фильм Я, снова я и мама бесплатно
    Я, снова я и мама скачать торрент в хорошем качестве
    Я, снова я и мама смотреть онлайн бесплатно в хорошем качестве


    Вы не можете начинать темы
    Вы не можете отвечать на сообщения
    Вы не можете редактировать свои сообщения
    Вы не можете удалять свои сообщения
    Вы не можете голосовать в опросах
    Вы не можете прикреплять файлы к сообщениям
    Вы можете скачивать файлы