Ссылка на приватное зеркало нашего сайта всего за 1$. Внимание количество ограничено!!!

2 сезон

iTunes

1 сезон

1

iTunes

iTunes

iTunes

1 сезон

RePack

30

ИГРА 18+

pack

ВАЖНО

!!Акция!!

Alien_RageХит недели

RePack

MK11
pack

Забери бонус

RePack

jed

!!Акция!!

Alien_Rage

RePack

fifa19

RePack

Assassins Creed: Odyssey

RePack

NEED FOR SPEED™ PAYBACK

4 сезон

9 сезон

Бесстыжие 9 сезон

Все сериалы

все сериалы на PB.wtf

RePack

FAR CRY 5
  

Знамение судного дня / The 12 Disasters of Christmas (Стивен Р. Монро) [2012 г., Фантастика, BDRip 1080p, Профессиональное (многоголосое) [Лицензия] pb.wtf

Знамение судного дня через торрент pb.wtf

Размер: 7.93 GB | Добавлен: 6 лет 7 мес. назад | Торрент скачан:120 раз
Скачать  

01-03-2014 17:56 Знамение судного дня Скачать торрент  

Знамение судного дня / The 12 Disasters of Christmas
Год выпуска: 2012
Страна: Канада
Жанр: Фантастика,
Продолжительность: 1:29:48
Перевод: Профессиональное (многоголосое) [Лицензия]
Субтитры: Русские

Режиссер: Стивен Р. Монро
Продюссер: Джон Принц
Сценарий: Руди Тауберг

В ролях: Эд Куинн, Магда Апанович, Холли Элисса, Райан Грантхэм, Кай-Эрик Эриксен, Роарк Критчлоу, Эндрю Эйрлай, Грег Кин, Доннелли Роудс, Бренна О'Брайен,

Описание: Вскоре на планете могут произойти катастрофические изменения, которые станут началом конца и ознаменуют окончание человеческой истории. Рождественская звезда, таинственно появившаяся на небе, становится основным фактом в пользу этой гипотезы. Единственной, кто может предотвратить вселенскую катастрофу и спасти человечество от ужасного уничтожения, становится юная девушка Джейси. Но сможет ли эта хрупкая героиня одна противостоять могущественной силе и предотвратить опасность, против которой бессильно все человечество?

Качество:BDRip 1080p
Формат: MKV
Видео кодек: AVC
Аудио кодек: AC3
Видео: 1980x1080 (16:9), 23 fps, AVC ~ 11400 kbps avg
Аудио#1: 48.000 AC3 Dolby Digital, 3/2 (L,C,R,l,r) + LFE ch ~ 448 kb/s kbps avg - Русский
Аудио#2: 48.000 DTS Dolby Digital, 3/2 (L,C,R,l,r) + LFE ch ~ 448 kb/s kbps avg - Английский
Релиз от: CINEMANIA



General
Unique ID : 221082364767794993916231520022321470877 (0xA652EA2662D0912D8420E02ABF4C9D9D)
Complete name : The.12.Disasters.Of.Christmas.2012.BluRay.1080p.mkv
Format : Matroska
Format version : Version 4 / Version 2
File size : 7.93 GiB
Duration : 1h 29mn
Overall bit rate : 12.6 Mbps
Movie name : Release Group CINEMANIA
Encoded date : UTC 2014-02-28 21:56:27
Writing application : mkvmerge v6.7.0 ('Back to the Ground') 64bit built on Jan 8 2014 15:10:52
Writing library : libebml v1.3.0 + libmatroska v1.4.1

Video
ID : 1
Format : AVC
Format/Info : Advanced Video Codec
Format profile : High@L4.1
Format settings, CABAC : Yes
Format settings, ReFrames : 4 frames
Codec ID : V_MPEG4/ISO/AVC
Duration : 1h 29mn
Bit rate : 11.4 Mbps
Width : 1 920 pixels
Height : 1 080 pixels
Display aspect ratio : 16:9
Frame rate mode : Constant
Frame rate : 23.976 fps
Color space : YUV
Chroma subsampling : 4:2:0
Bit depth : 8 bits
Scan type : Progressive
Bits/(Pixel*Frame) : 0.230
Stream size : 7.01 GiB (88%)
Title : Release Group CINEMANIA
Writing library : x264 core 140 r2377 1ca7bb9
Encoding settings : cabac=1 / ref=4 / deblock=1:0:0 / analyse=0x3:0x113 / me=umh / subme=7 / psy=1 / psy_rd=1.00:0.00 / mixed_ref=1 / me_range=16 / chroma_me=1 / trellis=1 / 8x8dct=1 / cqm=0 / deadzone=21,11 / fast_pskip=0 / chroma_qp_offset=-2 / threads=12 / lookahead_threads=2 / sliced_threads=0 / nr=0 / decimate=1 / interlaced=0 / bluray_compat=0 / constrained_intra=0 / bframes=3 / b_pyramid=2 / b_adapt=2 / b_bias=0 / direct=3 / weightb=1 / open_gop=0 / weightp=2 / keyint=250 / keyint_min=23 / scenecut=40 / intra_refresh=0 / rc_lookahead=50 / rc=2pass / mbtree=1 / bitrate=11431 / ratetol=1.0 / qcomp=0.60 / qpmin=0 / qpmax=69 / qpstep=4 / cplxblur=20.0 / qblur=0.5 / ip_ratio=1.40 / aq=1:1.00
Language : German
Default : Yes
Forced : No

Audio #1
ID : 2
Format : AC-3
Format/Info : Audio Coding 3
Mode extension : CM (complete main)
Format settings, Endianness : Big
Codec ID : A_AC3
Duration : 1h 29mn
Bit rate mode : Constant
Bit rate : 448 Kbps
Channel count : 6 channels
Channel positions : Front: L C R, Side: L R, LFE
Sampling rate : 48.0 KHz
Bit depth : 16 bits
Compression mode : Lossy
Stream size : 288 MiB (4%)
Title : Лицензия
Language : Russian
Default : Yes
Forced : Yes

Audio #2
ID : 3
Format : DTS
Format/Info : Digital Theater Systems
Mode : 16
Format settings, Endianness : Big
Codec ID : A_DTS
Duration : 1h 29mn
Bit rate mode : Constant
Bit rate : 768 Kbps
Channel count : 6 channels
Channel positions : Front: L C R, Side: L R, LFE
Sampling rate : 48.0 KHz
Bit depth : 24 bits
Compression mode : Lossy
Stream size : 493 MiB (6%)
Language : English
Default : No
Forced : No

Text
ID : 4
Format : UTF-8
Codec ID : S_TEXT/UTF8
Codec ID/Info : UTF-8 Plain Text
Title : R5
Language : Russian
Default : No
Forced : No

pb.wtf



Скачать Знамение судного дня через торрент http://3.firepic.org/3/images/2014-03/01/gwgb9cfrmal6.jpg Скачать фильм Знамение судного дня через торрент бесплантно в хорошем качестве Описание: Вскоре на планете могут произойти катастрофические изменения, которые станут началом конца и ознаменуют окончание человеческой ... 10 10 10
Торрент: Зарегистрирован [2014-03-01 17:56] · скачан: 120 раз
Статус: √ проверено
Размер: 7.93 GB
Как cкачать? Как скачать Знамение судного дня через торрент | qTorrent

% Раздел Тема Автор DL S | L
Фильмы [HD 720p, 1080p] (Хороший звук DUB, MVO) [ 4.65 GB ] Знамение судного дня / The 12 Disasters of Christmas [2012 BDRip 720p многоголосый ] kostya0104 Скачать
1 | 0

28-11-2019 20:33  

Отключить всю рекламу на сайте

01-03-2014 20:17 Знамение судного дня Скачать торрент  

а что стоит смотреть или ТВ3??????pb.wtf



01-03-2014 20:52 Знамение судного дня Скачать торрент  

8 гиг фигни ппцpb.wtf



01-03-2014 20:55 Знамение судного дня Скачать торрент  

посмотрел трейлер,фигня не смотритеpb.wtf



    Дорогой пользователь! Огромная просьба, поблагодарите релизера, оцените раздачу и оставьте свои комментарий, если Вы скачали Знамение судного дня через торрент бесплатно! Внесите свою лепту в развитие PiratBit!
    Комментировать посты могут только пользователи прошедшие не сложную регистрацию
    Показать сообщения:    

    Знамение судного дня через торрент
    Скачать бесплатно Знамение судного дня
    Знамение судного дня скачать торрент
    Знамение судного дня смотреть онлайн
    Cкачать фильм Знамение судного дня бесплатно
    Знамение судного дня скачать торрент в хорошем качестве
    Знамение судного дня смотреть онлайн бесплатно в хорошем качестве


    Вы не можете начинать темы
    Вы не можете отвечать на сообщения
    Вы не можете редактировать свои сообщения
    Вы не можете удалять свои сообщения
    Вы не можете голосовать в опросах
    Вы не можете прикреплять файлы к сообщениям
    Вы можете скачивать файлы