Ссылка на приватное зеркало нашего сайта всего за 1$. Внимание количество ограничено!!!

2 сезон

iTunes

1 сезон

1

2 сезон

2 сезон

iTunes

1 сезон

RePack

30

Ultimate

ВАЖНО

ИГРА 18+

pack

RePack

MK11
pack

Забери бонус

RePack

jed

!!Акция!!

Alien_Rage

RePack

fifa19

RePack

Assassins Creed: Odyssey

RePack

NEED FOR SPEED™ PAYBACK

4 сезон

9 сезон

Бесстыжие 9 сезон

Все сериалы

все сериалы на PB.wtf

RePack

FAR CRY 5
  

Зомбекс / Zombex (Джесси Дэйтон / Jesse Dayton) [ 2013 , США , ужасы, триллер , BDRip720 ]VO(den904)+Аншлийский pb.wtf

Зомбекс через торрент pb.wtf

Размер: 3.39 GB | Добавлен: 6 лет 8 мес. назад | Торрент скачан:54 раза
Скачать  

02-03-2014 02:17 Зомбекс Скачать торрент  

Зомбекс / Zombex
«Революционное лечение гарантировано, чтобы облегчить ваш ум. Навсегда»

Год выпуска: 2013
Страна: США
Жанр: ужасы, триллер
Продолжительность: 01:20:20
Перевод: Любительский (одноголосый)(den904)
Субтитры: Нет

Режиссер: Джесси Дэйтон / Jesse Dayton
Сценарий: Джесси Дэйтон / Jesse Dayton
Продюсер: Марисса Гаррисон / Marissa Garrison, Карма Клауд Монтань / Karma Cloud Montagne, Бэрри Александр / Barry Alexander, Андре Релис / Andre Relis, Крис Роу / Chris Roe
Оператор: Аарон Кертис / Aaron Curtis
Композитор: Стюарт Рау / Stuart Rau

Лью Темпл (Aldous Huxtable), Дэвид Кристофер (Charlie Thibideaux), Малкольм МакДауэлл (Dr. Soulis), Сид Хэйг (The Commander), Кори Фельдман (Dr. Jamison), Джон До (Seamus O'Connor), Эмили Кэй (Katie Ann), Том Арая (Walk-away Man), Кинки Фридман (Staff Sgt. James), Эрик Андерсон (Private Garrison), Ross Bautsch (Dylan), James Boisvenue (Street Dealer)

Мировая премьера: 26 октября 2013

Описание:После природного катаклизма, в помощь людям, находящимся во власти стресса, было разработано новое лекарство, которое эффективно изменяло людей... но в лучшую ли сторону?

Рейтинг
imdb.com: 2.20 (326)

Качество: BDRip720
Формат: MKV
Видео кодек: AVC
Аудио кодек: AC3/DTS
Видео: 4336 Кбит/сек, 1280*536 (2,40:1), в 23,976 кадра/сек, AVC
Аудио №1: русский, 192 Кбит/сек, 48,0 КГц, 16 бит, 2 канала, AC-3
Аудио №2: английский, 1509 Кбит/сек, 48,0 КГц, 24 бит, 6 каналов, DTS

Общее
Кол-во : 284
Кол-во потоков такого типа : 1
Тип потока : General
Тип потока : Общее
Идентификатор типа потока : 0
Inform : Matroska: 3,39 Гбайт, 1 ч. 20 м.
Уникальный идентификатор : 193585107445295647988051574778031214570
Уникальный идентификатор : 193585107445295647988051574778031214570 (0x91A322B18BAF551DAA26FCF2FF3B8FEA)
Кол-во видеопотоков : 1
Кол-во аудиопотоков : 2
Кол-во потоков меню : 1
Video_Format_List : AVC
Video_Format_WithHint_List : AVC
Видеокодеки : AVC
Video_Language_List : English
Audio_Format_List : AC-3 / DTS
Audio_Format_WithHint_List : AC-3 / DTS
Аудиокодеки : AC3 / DTS
Audio_Language_List : Russian / English
Полное имя : H:ТОРРЕНТЫЗомбекс.mkv
Имя папки : H:ТОРРЕНТЫ
Имя файла : Зомбекс
Расширение : mkv
Формат : Matroska
Формат : Matroska
Формат/Ссылка : http://packs.matroska.org/
Формат/Используется в : mkv mk3d mka mks
Коммерческое название : Matroska
Версия формата : Version 4 / Version 2
Кодек : Matroska
Кодек : Matroska
Кодек/Ссылка : http://packs.matroska.org/
Кодек/Используется в : mkv mk3d mka mks
Размер файла : 3637728197
Размер файла : 3,39 Гбайт
Размер файла : 3 Гбайт
Размер файла : 3,4 Гбайт
Размер файла : 3,39 Гбайт
Размер файла : 3,388 Гбайт
Продолжительность : 4820822
Продолжительность : 1 ч. 20 м.
Продолжительность : 1 ч. 20 м. 20 с. 822 мс.
Продолжительность : 1 ч. 20 м.
Продолжительность : 01:20:20.822
Общий поток : 6036694
Общий поток : 6037 Кбит/сек
Размер потока : 72391209
Размер потока : 69,0 Мбайт (2%)
Размер потока : 69 Мбайт
Размер потока : 69 Мбайт
Размер потока : 69,0 Мбайт
Размер потока : 69,04 Мбайт
Размер потока : 69,0 Мбайт (2%)
Пропорции потока : 0.01990
Дата кодирования : UTC 2014-02-28 18:53:35
Дата файла : UTC 2014-03-02 00:57:50.493
Дата файла (местная) : 2014-03-02 07:57:50.493
Дата изменения файла : UTC 2014-03-02 01:17:20.820
Дата изменения файла (местная) : 2014-03-02 08:17:20.820
Программа кодирования : mkvmerge v6.1.0 ('Old Devil') built on Mar 4 2013 09:10:42
Библиотека кодирования : libebml v1.3.0 + libmatroska v1.4.0
Библиотека кодирования : libebml v1.3.0 + libmatroska v1.4.0

Видео
Кол-во : 271
Кол-во потоков такого типа : 1
Тип потока : Video
Тип потока : Видео
Идентификатор типа потока : 0
StreamOrder : 0
Inform : English, 4336 Кбит/сек, 1280*536 (2,40:1), в 23,976 кадра/сек, AVC (High@L4.1) (CABAC / 5 Ref Frames)
Идентификатор : 1
Идентификатор : 1
Уникальный идентификатор : 1
Формат : AVC
Формат/Информация : Advanced Video Codec
Формат/Ссылка : http://developers.videolan.org/x264.html
Коммерческое название : AVC
Профиль формата : High@L4.1
Настройки формата : CABAC / 5 Ref Frames
Параметр CABAC формата : Yes
Параметр CABAC формата : Да
Параметр ReFrames формата : 5
Параметр ReFrames формата : 5 кадров
Интернет-тип носителя : video/H264
Идентификатор кодека : V_MPEG4/ISO/AVC
Идентификатор кодека/Ссылка : http://ffdshow-tryout.sourceforge.net/
Кодек : V_MPEG4/ISO/AVC
Кодек : AVC
Кодек/Семейство : AVC
Кодек/Информация : Advanced Video Codec
Кодек/Ссылка : http://ffdshow-tryout.sourceforge.net/
Профиль кодека : High@L4.1
Настройки кодека : CABAC / 5 Ref Frames
Параметр CABAC кодека : Yes
Codec_Settings_RefFrames : 5
Продолжительность : 4820821
Продолжительность : 1 ч. 20 м.
Продолжительность : 1 ч. 20 м. 20 с. 821 мс.
Продолжительность : 1 ч. 20 м.
Продолжительность : 01:20:20.821
Битрейт : 4336000
Битрейт : 4336 Кбит/сек
Ширина : 1280
Ширина : 1280 пикселей
Высота : 536
Высота : 536 пикселей
Пропорции пикселя : 1.000
Соотношение сторон : 2.388
Соотношение сторон : 2,40:1
Режим частоты кадров : CFR
Режим частоты кадров : Постоянный
Частота кадров : 23.976
Частота кадров : 23,976 кадра/сек
Счётчик кадров : 115584
Разрешение : 8
Разрешение : 8 бит
Колориметрия : 4:2:0
Цветовое пространство : YUV
Субдискретизация насыщенности : 4:2:0
Битовая глубина : 8
Битовая глубина : 8 бит
Тип развёртки : Progressive
Тип развёртки : Прогрессивная
Переплетение : PPF
Переплетение : Прогрессивная
Бит/(Пиксели*Кадры) : 0.264
Задержка : 0
Задержка : 00:00:00.000
Задержка в оригинале : Container
Задержка в оригинале : Контейнер
Размер потока : 2540309711
Размер потока : 2,37 Гбайт (70%)
Размер потока : 2 Гбайт
Размер потока : 2,4 Гбайт
Размер потока : 2,37 Гбайт
Размер потока : 2,366 Гбайт
Размер потока : 2,37 Гбайт (70%)
Пропорции потока : 0.69832
Библиотека кодирования : x264 - core 140 r2377 1ca7bb9
Библиотека кодирования : x264 core 140 r2377 1ca7bb9
Библиотека кодирования/Имя : x264
Библиотека кодирования/Version : core 140 r2377 1ca7bb9
Настройки программы : cabac=1 / ref=5 / deblock=1:0:0 / analyse=0x3:0x113 / me=umh / subme=7 / psy=1 / psy_rd=1.00:0.00 / mixed_ref=1 / me_range=16 / chroma_me=1 / trellis=1 / 8x8dct=1 / cqm=0 / deadzone=21,11 / fast_pskip=0 / chroma_qp_offset=-2 / threads=18 / lookahead_threads=3 / sliced_threads=0 / nr=0 / decimate=1 / interlaced=0 / bluray_compat=0 / constrained_intra=0 / bframes=3 / b_pyramid=2 / b_adapt=1 / b_bias=0 / direct=1 / weightb=1 / open_gop=0 / weightp=2 / keyint=250 / keyint_min=23 / scenecut=40 / intra_refresh=0 / rc_lookahead=40 / rc=2pass / mbtree=1 / bitrate=4336 / ratetol=1.0 / qcomp=0.60 / qpmin=0 / qpmax=69 / qpstep=4 / cplxblur=20.0 / qblur=0.5 / ip_ratio=1.40 / aq=1:1.00
Язык : en
Язык : English
Язык : English
Язык : en
Язык : eng
Язык : en
Default : Yes
Default : Да
Forced : No
Forced : Нет

Аудио #1
Кол-во : 244
Кол-во потоков такого типа : 2
Тип потока : Audio
Тип потока : Аудио
Идентификатор типа потока : 0
Позиция идентификатора типа потока : 1
StreamOrder : 1
Inform : Russian, 192 Кбит/сек, 48,0 КГц, 16 бит, 2 канала, AC-3
Идентификатор : 2
Идентификатор : 2
Уникальный идентификатор : 10761443621256043904
Формат : AC-3
Формат/Информация : Audio Coding 3
Коммерческое название : AC-3
Расширение режима : CM (complete main)
Параметр Endianness формата : Big
Идентификатор кодека : A_AC3
Кодек : AC3
Кодек : AC3
Кодек/Семейство : AC3
Кодек/Информация : Dolby AC3
Продолжительность : 4820822
Продолжительность : 1 ч. 20 м.
Продолжительность : 1 ч. 20 м. 20 с. 822 мс.
Продолжительность : 1 ч. 20 м.
Продолжительность : 01:20:20.822
Вид битрейта : CBR
Вид битрейта : Постоянный
Битрейт : 192000
Битрейт : 192 Кбит/сек
Каналы : 2
Каналы : 2 канала
Расположение каналов : Front: L R
Расположение каналов : 2/0/0
Частота : 48000
Частота : 48,0 КГц
Количество образцов : 231399456
Разрешение : 16
Разрешение : 16 бит
Битовая глубина : 16
Битовая глубина : 16 бит
Метод сжатия : Lossy
Метод сжатия : С потерями
Задержка : 0
Задержка : 00:00:00.000
Задержка в оригинале : Container
Задержка в оригинале : Контейнер
Задержка видео : 0
Задержка видео : 0
Размер потока : 115699728
Размер потока : 110 Мбайт (3%)
Размер потока : 110 Мбайт
Размер потока : 110 Мбайт
Размер потока : 110 Мбайт
Размер потока : 110,3 Мбайт
Размер потока : 110 Мбайт (3%)
Пропорции потока : 0.03181
Язык : ru
Язык : Russian
Язык : Russian
Язык : ru
Язык : rus
Язык : ru
Default : Yes
Default : Да
Forced : No
Forced : Нет
bsid : 4
dialnorm : -31
dialnorm/String : -31 dB
compr : -0.28
compr/String : -0.28 dB
dsurmod : 0
acmod : 2
lfeon : 0
dialnorm_Average : -31
dialnorm_Average/String : -31 dB
dialnorm_Minimum : -31
dialnorm_Minimum/String : -31 dB
dialnorm_Maximum : -31
dialnorm_Maximum/String : -31 dB
dialnorm_Count : 2
compr_Average : -0.28
compr_Average/String : -0.28 dB
compr_Minimum : -0.28
compr_Minimum/String : -0.28 dB
compr_Maximum : -0.28
compr_Maximum/String : -0.28 dB
compr_Count : 2

Аудио #2
Кол-во : 222
Кол-во потоков такого типа : 2
Тип потока : Audio
Тип потока : Аудио
Идентификатор типа потока : 1
Позиция идентификатора типа потока : 2
StreamOrder : 2
Inform : English, 1509 Кбит/сек, 48,0 КГц, 24 бит, 6 каналов, DTS
Идентификатор : 3
Идентификатор : 3
Уникальный идентификатор : 3299633538403442872
Формат : DTS
Формат/Информация : Digital Theater Systems
Коммерческое название : DTS
Режим : 16
Параметр Endianness формата : Big
Идентификатор кодека : A_DTS
Кодек : DTS
Кодек : DTS
Кодек/Семейство : DTS
Продолжительность : 4820822
Продолжительность : 1 ч. 20 м.
Продолжительность : 1 ч. 20 м. 20 с. 822 мс.
Продолжительность : 1 ч. 20 м.
Продолжительность : 01:20:20.822
Вид битрейта : CBR
Вид битрейта : Постоянный
Битрейт : 1509000
Битрейт : 1509 Кбит/сек
Каналы : 6
Каналы : 6 каналов
Расположение каналов : Front: L C R, Side: L R, LFE
Расположение каналов : 3/2/0.1
Частота : 48000
Частота : 48,0 КГц
Количество образцов : 231399456
Разрешение : 24
Разрешение : 24 бит
Битовая глубина : 24
Битовая глубина : 24 бит
Метод сжатия : Lossy
Метод сжатия : С потерями
Задержка : 0
Задержка : 00:00:00.000
Задержка в оригинале : Container
Задержка в оригинале : Контейнер
Задержка видео : 0
Задержка видео : 0
Размер потока : 909327549
Размер потока : 867 Мбайт (25%)
Размер потока : 867 Мбайт
Размер потока : 867 Мбайт
Размер потока : 867 Мбайт
Размер потока : 867,2 Мбайт
Размер потока : 867 Мбайт (25%)
Пропорции потока : 0.24997
Язык : en
Язык : English
Язык : English
Язык : en
Язык : eng
Язык : en
Default : No
Default : Нет
Forced : No
Forced : Нет

Меню
Кол-во : 89
Кол-во потоков такого типа : 1
Тип потока : Menu
Тип потока : Меню
Идентификатор типа потока : 0
Chapters_Pos_Begin : 77
Chapters_Pos_End : 89
00:00:00.000 : en:00:00:00.000
00:06:06.741 : en:00:06:06.741
00:12:02.138 : en:00:12:02.138
00:18:28.232 : en:00:18:28.232
00:24:28.509 : en:00:24:28.509
00:30:08.974 : en:00:30:08.974
00:36:00.575 : en:00:36:00.575
00:43:30.900 : en:00:43:30.900
00:49:57.578 : en:00:49:57.578
00:54:53.415 : en:00:54:53.415
01:04:05.091 : en:01:04:05.091
01:10:20.091 : en:01:10:20.091


скриншот  скриншот  скриншот  скриншот  скриншот  скриншот  скриншот  



pb.wtf



Скачать Зомбекс через торрент http://pic.kartinco.top/images/6/bs4zo.jpg Скачать фильм Зомбекс через торрент бесплантно в хорошем качестве Описание:После природного катаклизма, в помощь людям, находящимся во власти стресса, было разработано новое лекарство, которое эффективно ... 8.7 10 7
Торрент: Зарегистрирован [2014-03-02 02:17] · скачан: 54 раз
Статус: √ проверено
Размер: 3.39 GB
Как cкачать? Как скачать Зомбекс через торрент | qTorrent

28-11-2019 20:33  

Отключить всю рекламу на сайте

    Дорогой пользователь! Огромная просьба, поблагодарите релизера, оцените раздачу и оставьте свои комментарий, если Вы скачали Зомбекс через торрент бесплатно! Внесите свою лепту в развитие PiratBit!
    Комментировать посты могут только пользователи прошедшие не сложную регистрацию
    Показать сообщения:    

    Зомбекс через торрент
    Скачать бесплатно Зомбекс
    Зомбекс скачать торрент
    Зомбекс смотреть онлайн
    Cкачать фильм Зомбекс бесплатно
    Зомбекс скачать торрент в хорошем качестве
    Зомбекс смотреть онлайн бесплатно в хорошем качестве


    Вы не можете начинать темы
    Вы не можете отвечать на сообщения
    Вы не можете редактировать свои сообщения
    Вы не можете удалять свои сообщения
    Вы не можете голосовать в опросах
    Вы не можете прикреплять файлы к сообщениям
    Вы можете скачивать файлы