новый адрес пиратбит piratbit
Мега распродажа FORZA HORIZON 4 ULTIMATE+ВСЕ DLC+ОНЛАЙН всего за 499р. 349 руб. (супер цена). Внимание количество ограничено!!!

iTunes

1+1

iTunes

мы

iTunes

1

iTunes

Чернобыль

iTunes

Ральф против интернета

Лицензия

ПШазам

Лицензия

Игра престолов

Лицензия

30
pack

ВАЖНО

!!Акция!!

Alien_RageХит недели

RePack

Resident Evil 21

ИГРА 18+

pack

RePack

Metro:Exodus

!!Акция!!

Alien_Rage

RePack

fifa19

RePack

Assassins Creed: Odyssey

RePack

NEED FOR SPEED™ PAYBACK

3 сезон

9 сезон

Бесстыжие 9 сезон

Все сериалы

все сериалы на PB.wtf

RePack

FAR CRY 5
Ребята, катастрофически не хватает 1900р. для оплаты серверов за Октябрь (всвязи с блокировками трафик упал в 3 раза), 1-2р., выручайте.
  

Киллер / Kiler (Юлиуш Махульски / Juliusz Machulski) [1997, Польша, боевик, комедия, криминал, DVDRip-AVC] MVO + AVO (Санаев) + Original pb.wtf

Киллер через торрент pb.wtf

Раздают: 1 [ 44 KB/s ]
Размер: 2.18 GB | Добавлен: 5 лет 8 мес. назад | Торрент скачан:41 раз
Скачать  

02-03-2014 12:18 Киллер Скачать торрент  

Киллер
Kiler




Страна: Польша
Жанр: боевик, комедия, криминал
Год выпуска: 1997
Продолжительность: 01:44:02

Перевод: Профессиональный (многоголосый, закадровый) [к/ст. им. Горького] + Авторский (одноголосый, закадровый) [Санаев]
Cубтитры: нет
Оригинальная аудиодорожка: Польский

Режиссер:
Юлиуш Махульски / Juliusz Machulski

В ролях:
Цезары Пазура, Малгожата Козуховска, Ежи Штур, Януш Ревинский, Катажина Фигура, Ян Энглерт, Кшиштоф Кершновский, Марек Кондрат, Ян Махульский, Алекс Мерфи

Описание:
Обычного таксиста Ежи ошибочно принимают за профессионального убийцу с международной известностью по прозвищу «Киллер».

Оказавшись в тюрьме, он неожиданно для себя встречает уважение и восхищение окружающих: сокамерников, полицейских и охранников. Позже гангстеры освобождают Ежи из тюрьмы и ему начинает нравиться новая жизнь, не сравнимая с прежней жизнью неудачника…


Релиз:

Автор рипа: Stalker oK

Сэмпл: multi-up

Качество видео: DVDRip-AVC [Kiler DVD5]
Формат видео: MKV
Видео кодек: AVC
Аудио кодек: AC3
Видео: 2297 Кбит/сек, 712(778)*482 (1,614), в 25,000 кадр/сек, AVC
Аудио #1: Russian, 128 Кбит/сек, 48,0 КГц, 16 бит, 2 канала(ов), AC-3 к/ст. им. Горького
Аудио #2: Russian, 128 Кбит/сек, 48,0 КГц, 16 бит, 2 канала(ов), AC-3 Санаев
Аудио #3: Polish, 448 Кбит/сек, 48,0 КГц, 16 бит, 5 канала(ов), AC-3
Общее
Уникальный идентификатор : 198240941652899261946709067811426990262 (0x9523D10AF25E3AE7B4A9936FF96CF8B6)
Полное имя : H:!Киллер 1, 2Kiler DVD5КиллерKiler_1997_DVDRip_AVC_MVO_2.18__stalkerok_new-team.mkv
Формат : Matroska
Размер файла : 2,18 Гбайт
Продолжительность : 1 ч. 44 м.
Общий поток : 3003 Кбит/сек
Название фильма : Kiler (1997) (New-Team) (Rip by Stalker oK)
Дата кодирования : UTC 2014-03-02 11:05:45
Программа кодирования : mkvmerge v6.2.0 ('Promised Land') built on Apr 28 2013 12:22:01
Библиотека кодирования : libebml v1.3.0 + libmatroska v1.4.0

Видео
Идентификатор : 1
Формат : AVC
Формат/Информация : Advanced Video Codec
Профиль формата : High@L4.1
Параметр CABAC формата : Да
Параметр ReFrames формата : 11 кадры
Идентификатор кодека : V_MPEG4/ISO/AVC
Продолжительность : 1 ч. 44 м.
Битрейт : 2297 Кбит/сек
Ширина : 712 пикс.
Высота : 482 пикс.
Соотношение сторон : 1,614
Соотношение сторон в оригинале : 1,616
Частота кадров : 25,000 кадр/сек
Цветовое пространство : YUV
Подвыборка цветности : 4:2:0
Битовая глубина : 8 бит
Тип развёртки : Прогрессивная
Бит/(Пиксели*Кадры) : 0.268
Размер потока : 1,63 Гбайт (75%)
Библиотека кодирования : x264 core 138 r2358 9e941d1
Настройки программы : cabac=1 / ref=11 / deblock=1:-2:-1 / analyse=0x3:0x133 / me=umh / subme=10 / psy=1 / psy_rd=1.00:0.15 / mixed_ref=1 / me_range=32 / chroma_me=1 / trellis=2 / 8x8dct=1 / cqm=0 / deadzone=21,11 / fast_pskip=0 / chroma_qp_offset=-3 / threads=4 / lookahead_threads=1 / sliced_threads=0 / nr=0 / decimate=0 / interlaced=0 / bluray_compat=0 / constrained_intra=0 / bframes=10 / b_pyramid=2 / b_adapt=2 / b_bias=0 / direct=3 / weightb=1 / open_gop=0 / weightp=2 / keyint=250 / keyint_min=25 / scenecut=40 / intra_refresh=0 / rc_lookahead=80 / rc=2pass / mbtree=1 / bitrate=2297 / ratetol=1.0 / qcomp=0.65 / qpmin=0 / qpmax=69 / qpstep=4 / cplxblur=20.0 / qblur=0.5 / vbv_maxrate=20000 / vbv_bufsize=25000 / nal_hrd=none / ip_ratio=1.40 / aq=1:1.00

Аудио #1
Идентификатор : 2
Формат : AC-3
Формат/Информация : Audio Coding 3
Расширение режима : CM (complete main)
Идентификатор кодека : A_AC3
Продолжительность : 1 ч. 44 м.
Вид битрейта : Постоянный
Битрейт : 128 Кбит/сек
Канал(ы) : 2 канала(ов)
Расположение каналов : Front: L R
Частота : 48,0 КГц
Битовая глубина : 16 бит
Метод сжатия : С потерями
Размер потока : 95,3 Мбайт (4%)
Заголовок : AC3 2.0 @ 128 kbps MVO к/ст. им. Горького
Язык : Russian

Аудио #2
Идентификатор : 3
Формат : AC-3
Формат/Информация : Audio Coding 3
Расширение режима : CM (complete main)
Идентификатор кодека : A_AC3
Продолжительность : 1 ч. 44 м.
Вид битрейта : Постоянный
Битрейт : 128 Кбит/сек
Канал(ы) : 2 канала(ов)
Расположение каналов : Front: L R
Частота : 48,0 КГц
Битовая глубина : 16 бит
Метод сжатия : С потерями
Задержка видео : 90 мс.
Размер потока : 95,3 Мбайт (4%)
Заголовок : AC3 2.0 @ 128 kbps AVO Санаев
Язык : Russian

Аудио #3
Идентификатор : 4
Формат : AC-3
Формат/Информация : Audio Coding 3
Расширение режима : CM (complete main)
Идентификатор кодека : A_AC3
Продолжительность : 1 ч. 44 м.
Вид битрейта : Постоянный
Битрейт : 448 Кбит/сек
Канал(ы) : 5 канала(ов)
Расположение каналов : Front: L C R, Side: L R
Частота : 48,0 КГц
Битовая глубина : 16 бит
Метод сжатия : С потерями
Задержка видео : 90 мс.
Размер потока : 333 Мбайт (15%)
Заголовок : AC3 5.1 @ 448 kbps
Язык : Polish
pb.wtf



Скачать Киллер через торрент http://i4.imageban.ru/out/2013/11/20/23afd37ba301cf29b16658cd2201c4ed.png Скачать фильм Киллер через торрент бесплантно в хорошем качестве Описание:Обычного таксиста Ежи ошибочно принимают за профессионального убийцу с международной известностью по прозвищу «Киллер».Оказавшись ... 10 10 4
Info! Золотая раздача, скачанное не засчитывается.
Торрент: Зарегистрирован [2014-03-02 12:18] · скачан: 41 раз
Статус: √ проверено
Размер: 2.18 GB
Как cкачать? Как скачать Киллер через торрент | qTorrent

% Раздел Тема Автор DL S | L
Фильмы (Blu-ray, BD-Remux, HDDVD) [ 29.92 GB ] Киллер Джо / Killer Joe [2011 BDRemux 1080p] Dub + DVO + Original + Subs Ворон Скачать
1 | 0
Фильмы до 2000 г. [ 1.45 GB ] Киллер 2 / Kiler-ow 2-och / Kilerów 2-óch [1998 Польша DVDRip-AVC] MVO + Original sokol_ok Скачать
2 | 0
Фильмы до 2000 г. [ 2.18 GB ] Киллер 2 / Kiler-ow 2-och / Kilerów 2-óch [1998 Польша DVDRip-AVC] MVO + Original sokol_ok Скачать
2 | 0


>> Регистрируемся здесь <<






Отзывы и комментарии о схеме читаем и пишем здесь: ---> Отзывы и комментарии о схеме

Новые благодарочки в телеграм довольных пользователей:
скриншот   скриншот   скриншот   скриншот   скриншот
    Дорогой пользователь! Огромная просьба, поблагодарите релизера, оцените раздачу и оставьте свои комментарий, если Вы скачали Киллер через торрент бесплатно! Внесите свою лепту в развитие PiratBit!
    Комментировать посты могут только пользователи прошедшие не сложную регистрацию
    Показать сообщения:    

    Киллер через торрент
    Скачать бесплатно Киллер
    Киллер скачать торрент
    Киллер смотреть онлайн
    Cкачать фильм Киллер бесплатно
    Киллер скачать торрент в хорошем качестве
    Киллер смотреть онлайн бесплатно в хорошем качестве


    Вы не можете начинать темы
    Вы не можете отвечать на сообщения
    Вы не можете редактировать свои сообщения
    Вы не можете удалять свои сообщения
    Вы не можете голосовать в опросах
    Вы не можете прикреплять файлы к сообщениям
    Вы можете скачивать файлы