Ссылка на приватное зеркало нашего сайта всего за 1$. Внимание количество ограничено!!!

2 сезон

iTunes

1 сезон

1

iTunes

iTunes

iTunes

1 сезон

RePack

30

ИГРА 18+

pack

ВАЖНО

!!Акция!!

Alien_RageХит недели

RePack

MK11
pack

Забери бонус

RePack

jed

!!Акция!!

Alien_Rage

RePack

fifa19

RePack

Assassins Creed: Odyssey

RePack

NEED FOR SPEED™ PAYBACK

4 сезон

9 сезон

Бесстыжие 9 сезон

Все сериалы

все сериалы на PB.wtf

RePack

FAR CRY 5
  

Мертвая зыбь / Skumtimmen (Дэниэл Альфредсон) [2013 г., драма, детектив, HDRip, Любительский одноголосый] pb.wtf

Мертвая зыбь через торрент pb.wtf

Размер: 2.15 GB | Добавлен: 6 лет 7 мес. назад | Торрент скачан:34 раза
Скачать  

02-03-2014 13:15 Мертвая зыбь Скачать торрент  

Мертвая зыбь / Skumtimmen
Год выпуска: 2013
Страна: Швеция / Fundament Film, Yellow Bird Films
Жанр: драма, детектив
Продолжительность: 01:35:21
Перевод: Любительский одноголосый (Pashaup)

Режиссер: Дэниэл Альфредсон



В ролях: Лена Эндре, Торд Петерсон, Томас Габриельссон, Феликс Энгстрём, Стефан Йёдикке, Юхан Сундберг,

Описание: Туманным днем на исходе лета на севере Эланда бесследно исчезает маленький мальчик. Семья, полиция и добровольцы ищут его день за днем, неделю за неделей. Спустя двадцать лет матери мальчика, Юлии, звонит её отец и просит приехать на остров провести собственное расследование и выяснить, что случилось с ребенком. Ее отец уверен: к исчезновению мальчика причастен Нильс Кант, местный житель, в свое время наводивший ужас на всю округу. Но Кант умер задолго до исчезновения сына Юлии. Однако многие утверждают, что видели, как он выходит побродить по пустоши, когда начинает темнеть — в сумерках…

Качество: HDRip
Формат: AVI
Видео кодек: XviD
Аудио кодек: AC3
Видео: 720x304 (2.37:1), 25 fps, XviD build 50 ~2774 kbps avg, 0.51 bit/pixel
Аудио: 48 kHz, AC3 Dolby Digital, 3/2 (L,C,R,l,r) + LFE ch, ~448 kbps

скриншот   скриншот   скриншот   скриншот   скриншот  

Общее
Полное имя : H:киноEchoes.From.The.Dead.2013.L1.HDRip.avi
Формат : AVI
Формат/Информация : Audio Video Interleave
Профиль формата : OpenDML
Размер файла : 2,15 Гбайт
Продолжительность : 1 ч. 35 м.
Общий поток : 3229 Кбит/сек
Программа кодирования : VirtualDubMod 1.5.10.3 | www.virtualdub-fr.org || (build 2550/release)
Библиотека кодирования : VirtualDubMod build 2550/release

Видео
Идентификатор : 0
Формат : MPEG-4 Visual
Профиль формата : Advanced Simple@L5
Параметр BVOP формата : 2
Параметр QPel формата : Нет
Параметр GMC формата : Без точки перехода
Параметр матрицы формата : Default (H.263)
Идентификатор кодека : XVID
Идентификатор кодека/Подсказка : XviD
Продолжительность : 1 ч. 35 м.
Битрейт : 2769 Кбит/сек
Ширина : 720 пикселей
Высота : 304 пикселя
Соотношение сторон : 2,35:1
Частота кадров : 25,000 кадров/сек
Цветовое пространство : YUV
Субдискретизация насыщенности : 4:2:0
Битовая глубина : 8 бит
Тип развёртки : Прогрессивная
Метод сжатия : С потерями
Бит/(Пиксели*Кадры) : 0.506
Размер потока : 1,84 Гбайт (86%)
Библиотека кодирования : XviD 1.2.1 (UTC 2008-12-04)

Аудио
Идентификатор : 1
Формат : AC-3
Формат/Информация : Audio Coding 3
Расширение режима : CM (complete main)
Параметр Endianness формата : Big
Идентификатор кодека : 2000
Продолжительность : 1 ч. 35 м.
Вид битрейта : Постоянный
Битрейт : 448 Кбит/сек
Каналы : 6 каналов
Расположение каналов : Front: L C R, Side: L R, LFE
Частота : 48,0 КГц
Битовая глубина : 16 бит
Метод сжатия : С потерями
Размер потока : 305 Мбайт (14%)
Выравнивание : Разделение по промежуткам
Продолжительность промежутка : 40 мс. (1,00 видеокадр)
Время предзагрузки промежутка : 500 мс.

pb.wtf



Скачать Мертвая зыбь через торрент http://pic.kartinco.top/images/6/tkirf.jpg Скачать фильм Мертвая зыбь через торрент бесплантно в хорошем качестве Описание: Туманным днем на исходе лета на севере Эланда бесследно исчезает маленький мальчик. Семья, полиция и добровольцы ищут его день за ... 10 10 1
Торрент: Зарегистрирован [2014-03-02 13:15] · скачан: 34 раз
Статус: T временная
Размер: 2.15 GB
Как cкачать? Как скачать Мертвая зыбь через торрент | qTorrent

28-11-2019 20:33  

Отключить всю рекламу на сайте

    Дорогой пользователь! Огромная просьба, поблагодарите релизера, оцените раздачу и оставьте свои комментарий, если Вы скачали Мертвая зыбь через торрент бесплатно! Внесите свою лепту в развитие PiratBit!
    Комментировать посты могут только пользователи прошедшие не сложную регистрацию
    Показать сообщения:    

    Мертвая зыбь через торрент
    Скачать бесплатно Мертвая зыбь
    Мертвая зыбь скачать торрент
    Мертвая зыбь смотреть онлайн
    Cкачать фильм Мертвая зыбь бесплатно
    Мертвая зыбь скачать торрент в хорошем качестве
    Мертвая зыбь смотреть онлайн бесплатно в хорошем качестве


    Вы не можете начинать темы
    Вы не можете отвечать на сообщения
    Вы не можете редактировать свои сообщения
    Вы не можете удалять свои сообщения
    Вы не можете голосовать в опросах
    Вы не можете прикреплять файлы к сообщениям
    Вы можете скачивать файлы