1 сезон

3 сезон

iTunes

1

Line

MVO

iTunes

13

1 сезон

RePack

30

Deluxe

pack

Лицензия

ВАЖНО

ИГРА 18+

pack

RePack

MK11

RePack

jed

RePack

fifa19

RePack

RDR2

RePack

NEED FOR SPEED™ PAYBACK

4 сезон

9 сезон

Бесстыжие 9 сезон

Все сериалы

все сериалы на PB.wtf

RePack

FAR CRY 5

Anonymous, доброе утро, мы катастрофически не успеваем собрать деньги на оплату серверов, помогите нам пожалуйста 5,10,15р., для нас важна любая помощь . В качестве благодарности мы отключим Вам всю рекламу на сайте (укажите свой ник в строку Ваше имя)!

×
  
Magnet ссылка

Команда Мечты / Les seigneurs (Оливье Даан / Olivier Dahan) [2012, комедия, спорт, DVD5] R5 pb.wtf

Команда Мечты через торрент pb.wtf

Размер: 3.98 GB | Добавлен: 7 лет 4 мес. назад | Торрент скачан:60 раз
Скачать  

02-03-2014 17:41 Команда Мечты Скачать торрент  


Команда Мечты / Les seigneurs
«Мастерство не пропьёшь!»
Страна: Франция
Студия: Canal+ [fr], Ciné, Od Shots, TF1, TF1 Films Production, Vito Films
Жанр: комедия, спорт
Год выпуска: 2012
Мировая премьера: 26 сентября 2012
Российская премьера: 21 ноября 2013
Дата выхода DVD: 30 января 2014
Продолжительность: 01:33:03
Перевод: Профессиональный (дублированный) [Лицензия]
Cубтитры: украинские
Оригинальная аудиодорожка: нет
Режиссер: Оливье Даан / Olivier Dahan
В ролях: Хосе Гарсия, Жан-Пьер Марьель, Франк Дюбоск, Гад Эльмалех, Джои Старр, Рамзи Бедиа, Омар Си, Сами Амезьян, Клементин Баэрт, Фредерик Бель
Описание: Патрик — в прошлом известный футболист и тренер, а сейчас просто пьяница. Единственная работа, которую он может получить — это тренер любительской футбольной команды на севере Франции. И отказаться нельзя, если у него не будет работы, он лишится права опеки над дочерью. Дела на футбольном поприще у почтальонов, рыбаков и бухгалтеров идут неважно. И тогда Патрику в голову приходит гениальная мысль — пригласить бывших футбольных звезд, уже повесивших бутсы на гвоздь, в команду. Вас ждут веселые приключения и незабываемые футбольные баталии!
Бонусы: нет

Релиз группы:
Качество: DVD5 R5
Формат: DVD-Video
Видео кодек: MPEG2
Аудио кодек: AC3
Видео: PAL 16:9 (720x576(0.535)) MPEG Video, 25,000 кадр/сек, 5548 Кбит/сек
Аудио: Russian (Dolby AC3, 6 ch) 384 Кбит/сек, 48,0 КГц



Title: Komanda.Mechty.2012.D.DVD5
Size: 3.98 Gb ( 4 175 088,00 KBytes ) - DVD-5
Enabled regions: 1, 2, 3, 4, 5, 6, 7, 8

VTS_01 :
Play Length: 00:00:16
Video: PAL 16:9 (720x576) VBR, Auto Letterboxed
Audio:
Russian (Dolby AC3, 2 ch)

VTS_02 :
Play Length: 01:33:03
Video: PAL 16:9 (720x576) VBR, Auto Letterboxed
Audio:
Russian (Dolby AC3, 6 ch)
Subtitles:
Ukrainian

* Menus Information *

VIDEO_TS Menu
Video:
NTSC 4:3 (720x480) VBR
Auto Pan&Scan, Auto Letterboxed
Russian Language Unit :
Title Menu

VTS_01 Menu
Video:
NTSC 4:3 (720x480) VBR
Auto Pan&Scan, Auto Letterboxed
Language Unit :
Subpicture Menu
Angle menu
Language Unit :

Language Unit :
Subpicture Menu
Language Unit :
Subpicture Menu
Language Unit :
Subpicture Menu

VTS_02 Menu
Video:
PAL 16:9 (720x576) VBR
Auto Letterboxed
Audio:
Not specified (Dolby AC3, 2 ch)
Russian Language Unit :
Root Menu
Общее
Полное имя : K:Новинки 2013Komanda.Mechty.2012.D.DVD5VIDEO_TSVTS_02_2.VOB
Формат : MPEG-PS
Размер файла : 1024 Мбайт
Продолжительность : 23 м.
Режим общего битрейта : Переменный
Общий поток : 6052 Кбит/сек

Видео
Идентификатор : 224 (0xE0)
Формат : MPEG Video
Версия формата : Version 2
Профиль формата : Main@Main
Параметр BVOP формата : Да
Параметр матрицы формата : Выборочная
Параметр GOP формата : Variable
Продолжительность : 23 м.
Вид битрейта : Переменный
Битрейт : 5548 Кбит/сек
Максимальный битрейт : 8000 Кбит/сек
Ширина : 720 пикселей
Высота : 576 пикселей
Соотношение сторон : 16:9
Частота кадров : 25,000 кадров/сек
Стандарт вещания : PAL
Цветовое пространство : YUV
Субдискретизация насыщенности : 4:2:0
Битовая глубина : 8 бит
Тип развёртки : Прогрессивная
Метод сжатия : С потерями
Бит/(Пиксели*Кадры) : 0.535
Временной код первого кадра : 00:25:25:13
Оригинал временного кода : Group of pictures header
Размер потока : 938 Мбайт (92%)

Аудио
Идентификатор : 189 (0xBD)-128 (0x80)
Формат : AC-3
Формат/Информация : Audio Coding 3
Расширение режима : CM (complete main)
Параметр Endianness формата : Big
Режим смешивания : DVD-Video
Продолжительность : 23 м.
Вид битрейта : Постоянный
Битрейт : 384 Кбит/сек
Каналы : 6 каналов
Расположение каналов : Front: L C R, Side: L R, LFE
Частота : 48,0 КГц
Битовая глубина : 16 бит
Метод сжатия : С потерями
Задержка видео : -800 мс.
Размер потока : 65,0 Мбайт (6%)

Текст
Идентификатор : 189 (0xBD)-32 (0x20)
Формат : RLE
Формат/Информация : Run-length encoding
Режим смешивания : DVD-Video
Продолжительность : 23 м.
Задержка видео : 840 мс.










pb.wtf



Скачать Команда Мечты через торрент http://i59.fastpic.ru/big/2014/0302/60/1012a3dbee62a2e6b5f98d339e94ac60.jpg Скачать фильм Команда Мечты через торрент бесплантно в хорошем качестве Описание: Патрик — в прошлом известный футболист и тренер, а сейчас просто пьяница. Единственная работа, которую он может получить — это ... 9.8 10 8
Торрент: Зарегистрирован [2014-03-02 17:41] · скачан: 60 раз
Статус: √ проверено
Размер: 3.98 GB
Как cкачать? Как скачать Команда Мечты через торрент | UTorrent

28-11-2019 20:33  

Отключить всю рекламу на сайте


02-03-2014 18:38 Команда Мечты Скачать торрент  

Прикольный фильм!!! yespb.wtf



    Дорогой пользователь! Огромная просьба, поблагодарите релизера, оцените раздачу и оставьте свои комментарий, если Вы скачали Команда Мечты через торрент бесплатно! Внесите свою лепту в развитие PiratBit!
    Комментировать посты могут только пользователи прошедшие не сложную регистрацию
    Показать сообщения:    

    Команда Мечты через торрент
    Скачать бесплатно Команда Мечты
    Команда Мечты скачать торрент
    Команда Мечты смотреть онлайн
    Cкачать фильм Команда Мечты бесплатно
    Команда Мечты скачать торрент в хорошем качестве
    Команда Мечты смотреть онлайн бесплатно в хорошем качестве


    Вы не можете начинать темы
    Вы не можете отвечать на сообщения
    Вы не можете редактировать свои сообщения
    Вы не можете удалять свои сообщения
    Вы не можете голосовать в опросах
    Вы не можете прикреплять файлы к сообщениям
    Вы можете скачивать файлы