Мега распродажа FORZA HORIZON 4 ULTIMATE+ВСЕ DLC+ОНЛАЙН всего за 499р. 349 руб. (супер цена). Внимание количество ограничено!!!

iTunes

1+1

iTunes

мы

iTunes

1

1 сезон

Чернобыль

1 сезон

Ральф против интернета

Лицензия

ПШазам

8 сезон

Игра престолов

Лицензия

30
pack

ВАЖНО

!!Акция!!

Alien_RageХит недели

RePack

Resident Evil 21

ИГРА 18+

pack

RePack

Metro:Exodus

!!Акция!!

Alien_Rage

RePack

fifa19

RePack

Assassins Creed: Odyssey

RePack

NEED FOR SPEED™ PAYBACK

3 сезон

9 сезон

Бесстыжие 9 сезон

Все сериалы

все сериалы на PB.wtf

RePack

FAR CRY 5
Ребята, катастрофически не хватает 2730р. для оплаты серверов за ИЮНЬ (всвязи с блокировками трафик упал в 3 раза), 1-2р., выручайте.
  

Мама в законе Сезон: 1 / Серии: 4 из 4 (Михаил Вассербаум) [2014 г., Мелодрама, SATRip] pb.wtf

Мама в законе Сезон: 1 через торрент pb.wtf

Размер: 2.01 GB | Добавлен: 5 лет 4 мес. назад | Торрент скачан:556 раз
Скачать  

02-03-2014 21:00 Мама в законе Сезон: 1 Скачать торрент  

Мама в законеГод выпуска: 2014
Страна: Россия
Жанр: Мелодрама,
Продолжительность: 4 х~ 00:44:00

Режиссер: Михаил Вассербаум

В ролях: Виктория Тарасова, Андрей Стоянов, Андрей Чернышов, Екатерина Семёнова, Саша Дробитько, Роман Агеев, Наталья Унгард,

Описание: Светлана выходит из мест заключения и ищет своего сына Алекса, определенного в детдом органами опеки. Используя криминальные связи, она узнает, что мальчик усыновлен и проживает в семье генерала Терентьева. Она устраивается гувернанткой в дом генерала. Но видя, как Алекса любят в семье, Светлана не решается признаться ребенку, что она – его мать. Узнав о готовящемся на генерала покушении, она его предупреждает. В благодарность Терентьев дает Светлане возможность поговорить с сыном по душам и открыть ему тайну. Но Светлана не решается нарушить устоявшуюся жизнь Алекса. Она уезжает в другой город.

Качество: SATRip
Формат: AVI
Видео кодек: XviD
Аудио кодек: MP3
Видео: MPEG4, DivX 5, 720x448 (1.607), 25.000 fps, 1 501 Kbps (0.186 bit/pixel)
Аудио: MP3 , 48.0 KHz, 2 ch, 128 Kbps, CBR
скриншот   скриншот   скриншот   скриншот   скриншот   скриншот  

Код:

Формат                           : AVI
Формат/Информация                : Audio Video Interleave
Размер файла                     : 522 Мбайт
Продолжительность                : 44 м.
Общий поток                      : 1638 Кбит/сек
Библиотека кодирования           : VirtualDub build 35491/release

Видео
Идентификатор                    : 0
Формат                           : MPEG-4 Visual
Параметр BVOP формата            : 1
Параметр QPel формата            : Нет
Параметр GMC формата             : Без точки перехода
Параметр матрицы формата         : Default (H.263)
Режим смешивания                 : Сжатый битовый поток
Идентификатор кодека             : DX50
Идентификатор кодека/Подсказка   : DivX 5
Продолжительность                : 44 м.
Битрейт                          : 1501 Кбит/сек
Ширина                           : 720 пикс.
Высота                           : 448 пикс.
Соотношение сторон               : 1,607
Частота кадров                   : 25,000 кадр/сек
Цветовое пространство            : YUV
Подвыборка цветности             : 4:2:0
Битовая глубина                  : 8 бит
Тип развёртки                    : Прогрессивная
Метод сжатия                     : С потерями
Бит/(Пиксели*Кадры)              : 0.186
Размер потока                    : 478 Мбайт (92%)
Библиотека кодирования           : DivX 6.8.5 (UTC 2009-08-20)

Аудио
Идентификатор                    : 1
Формат                           : MPEG Audio
Версия формата                   : Version 1
Профиль формата                  : Layer 3
Режим                            : Joint stereo
Идентификатор кодека             : 55
Идентификатор кодека/Подсказка   : MP3
Продолжительность                : 44 м.
Вид битрейта                     : Постоянный
Битрейт                          : 128 Кбит/сек
Канал(ы)                         : 2 канала(ов)
Частота                          : 48,0 КГц
Метод сжатия                     : С потерями
Размер потока                    : 40,8 Мбайт (8%)
Выравнивание                     : Разделение по промежуткам
Продолжительность промежутка     : 40  мс. (1,00 видеокадр)
Время предзагрузки промежутка    : 500 ms[/align]


pb.wtf



Скачать Мама в законе Сезон: 1 через торрент http://pic.kartinco.top/images/6/8g279.jpg Скачать фильм Мама в законе Сезон: 1 через торрент бесплантно в хорошем качестве Описание: Светлана выходит из мест заключения и ищет своего сына Алекса, определенного в детдом органами опеки. Используя криминальные ... 9.6 10 17
Info! Золотая раздача, скачанное не засчитывается.
Торрент: Зарегистрирован [2014-03-02 21:00] · скачан: 556 раз
Статус: √ проверено
Размер: 2.01 GB
Как cкачать? Как скачать Мама в законе Сезон: 1 через торрент | qTorrent


>> Регистрируемся здесь <<






Отзывы и комментарии о схеме читаем и пишем здесь: ---> Отзывы и комментарии о схеме

Новые благодарочки в телеграм довольных пользователей:
скриншот   скриншот   скриншот   скриншот   скриншот
    Дорогой пользователь! Огромная просьба, поблагодарите релизера, оцените раздачу и оставьте свои комментарий, если Вы скачали Мама в законе Сезон: 1 через торрент бесплатно! Внесите свою лепту в развитие PiratBit!
    Комментировать посты могут только пользователи прошедшие не сложную регистрацию
    Показать сообщения:    

    Мама в законе Сезон: 1 через торрент
    Скачать бесплатно Мама в законе Сезон: 1
    Мама в законе Сезон: 1 скачать торрент
    Мама в законе Сезон: 1 смотреть онлайн
    Cкачать фильм Мама в законе Сезон: 1 бесплатно
    Мама в законе Сезон: 1 скачать торрент в хорошем качестве
    Мама в законе Сезон: 1 смотреть онлайн бесплатно в хорошем качестве


    Вы не можете начинать темы
    Вы не можете отвечать на сообщения
    Вы не можете редактировать свои сообщения
    Вы не можете удалять свои сообщения
    Вы не можете голосовать в опросах
    Вы не можете прикреплять файлы к сообщениям
    Вы можете скачивать файлы