Ссылка на приватное зеркало нашего сайта всего за 1$. Внимание количество ограничено!!!

2 сезон

iTunes

1 сезон

1

iTunes

iTunes

iTunes

1 сезон

RePack

30

ИГРА 18+

pack

ВАЖНО

!!Акция!!

Alien_RageХит недели

RePack

MK11
pack

Забери бонус

RePack

jed

!!Акция!!

Alien_Rage

RePack

fifa19

RePack

Assassins Creed: Odyssey

RePack

NEED FOR SPEED™ PAYBACK

4 сезон

9 сезон

Бесстыжие 9 сезон

Все сериалы

все сериалы на PB.wtf

RePack

FAR CRY 5
  

Злая кровь / Wicked Blood (Марк Янг) [2014 г., боевик, триллер, драма, HDRip, Любительский одноголосый] pb.wtf

Злая кровь через торрент pb.wtf

Размер: 2.1 GB | Добавлен: 6 лет 7 мес. назад | Торрент скачан:266 раз
Скачать  

03-03-2014 17:13 Злая кровь Скачать торрент  

Злая кровь / Wicked Blood
Год выпуска: 2014
Страна: США / Industrial Entertainment, Nazz Productions, Primary PIctures
Жанр: боевик, триллер, драма
Продолжительность: 01:31:48
Перевод: Любительский одноголосый (datynet)

Режиссер: Марк Янг



В ролях: Эбигейл Бреслин, Алекса ПенаВега, Шон Бин, Джеймс Пьюрфой, Джейк Бьюзи, Лью Темпл, Дж.Д. Эвермор, Ричи Монтгомери, Томас Мерфи, Доди Браун,

Описание: Ханна Ли Бейкер — девочка-подросток, попавшая в ловушку насилия и оружия, мет-лабораторий и банд байкеров. Она живет со своей старшей сестрой, Амбер, и ее дядей-наркоманом. Все они боятся дядю Фрэнка Стинсона, который руководит незаконным семейным бизнесом…

Качество: HDRip
Формат: AVI
Видео кодек: XviD
Аудио кодек: AC3
Видео: 720x304 (2.37:1), 23.976 fps, XviD build 50 ~2820 kbps avg, 0.54 bit/pixel
Аудио: 48 kHz, AC3 Dolby Digital, 3/2 (L,C,R,l,r) + LFE ch, ~448 kbps


Общее
Полное имя : H:киноWicked.Blood.2014.HDRip.avi.avi
Формат : AVI
Формат/Информация : Audio Video Interleave
Профиль формата : OpenDML
Размер файла : 2,10 Гбайт
Продолжительность : 1 ч. 31 м.
Общий поток : 3276 Кбит/сек
Программа кодирования : VirtualDubMod 1.5.10.3 | www.virtualdub-fr.org || (build 2550/release)
Библиотека кодирования : VirtualDubMod build 2550/release

Видео
Идентификатор : 0
Формат : MPEG-4 Visual
Профиль формата : Advanced Simple@L5
Параметр BVOP формата : 2
Параметр QPel формата : Нет
Параметр GMC формата : Без точки перехода
Параметр матрицы формата : Default (H.263)
Идентификатор кодека : XVID
Идентификатор кодека/Подсказка : XviD
Продолжительность : 1 ч. 31 м.
Битрейт : 2815 Кбит/сек
Ширина : 720 пикселей
Высота : 304 пикселя
Соотношение сторон : 2,35:1
Частота кадров : 23,976 кадра/сек
Цветовое пространство : YUV
Субдискретизация насыщенности : 4:2:0
Битовая глубина : 8 бит
Тип развёртки : Прогрессивная
Метод сжатия : С потерями
Бит/(Пиксели*Кадры) : 0.537
Размер потока : 1,81 Гбайт (86%)
Библиотека кодирования : XviD 1.2.1 (UTC 2008-12-04)

Аудио
Идентификатор : 1
Формат : AC-3
Формат/Информация : Audio Coding 3
Расширение режима : CM (complete main)
Параметр Endianness формата : Big
Идентификатор кодека : 2000
Продолжительность : 1 ч. 31 м.
Вид битрейта : Постоянный
Битрейт : 448 Кбит/сек
Каналы : 6 каналов
Расположение каналов : Front: L C R, Side: L R, LFE
Частота : 48,0 КГц
Битовая глубина : 16 бит
Метод сжатия : С потерями
Размер потока : 294 Мбайт (14%)
Выравнивание : Разделение по промежуткам
Продолжительность промежутка : 42 мс. (1,00 видеокадр)
Время предзагрузки промежутка : 500 мс.

pb.wtf



Скачать Злая кровь через торрент http://pic.kartinco.top/images/6/hwhw6.jpg Скачать фильм Злая кровь через торрент бесплантно в хорошем качестве Описание: Ханна Ли Бейкер — девочка-подросток, попавшая в ловушку насилия и оружия, мет-лабораторий и банд байкеров. Она живет со своей ... 9.9 10 10
Торрент: Зарегистрирован [2014-03-03 17:13] · скачан: 266 раз
Статус: T временная
Размер: 2.1 GB
Как cкачать? Как скачать Злая кровь через торрент | qTorrent

% Раздел Тема Автор DL S | L
Фильмы [HD 720p, 1080p] (Звук Cam, VO, DVO) [ 6.84 GB ] Злая кровь / Wicked Blood [ 2014 BDRip 1080p ]VO Ворон Скачать
1 | 0
Фильмы [HD 720p, 1080p] (Звук Cam, VO, DVO) [ 4.66 GB ] Злая кровь / Wicked blood BDRip 720p от CINEMANIA / L1 sergey82 Скачать
1 | 0
T Фильмы 2014 (Звук TS, Cam, VO, DVO) [ 1.21 GB ] Злая кровь / Wicked Blood [ 2014 HDRip ]VO GEKADOL Скачать
1 | 0

28-11-2019 20:33  

Отключить всю рекламу на сайте

    Дорогой пользователь! Огромная просьба, поблагодарите релизера, оцените раздачу и оставьте свои комментарий, если Вы скачали Злая кровь через торрент бесплатно! Внесите свою лепту в развитие PiratBit!
    Комментировать посты могут только пользователи прошедшие не сложную регистрацию
    Показать сообщения:    

    Злая кровь через торрент
    Скачать бесплатно Злая кровь
    Злая кровь скачать торрент
    Злая кровь смотреть онлайн
    Cкачать фильм Злая кровь бесплатно
    Злая кровь скачать торрент в хорошем качестве
    Злая кровь смотреть онлайн бесплатно в хорошем качестве


    Вы не можете начинать темы
    Вы не можете отвечать на сообщения
    Вы не можете редактировать свои сообщения
    Вы не можете удалять свои сообщения
    Вы не можете голосовать в опросах
    Вы не можете прикреплять файлы к сообщениям
    Вы можете скачивать файлы