Ссылка на приватное зеркало нашего сайта всего за 1$. Внимание количество ограничено!!!

2 сезон

iTunes

1 сезон

1

2 сезон

2 сезон

iTunes

1 сезон

RePack

30

Ultimate

ВАЖНО

ИГРА 18+

pack

RePack

MK11
pack

Забери бонус

RePack

jed

!!Акция!!

Alien_Rage

RePack

fifa19

RePack

Assassins Creed: Odyssey

RePack

NEED FOR SPEED™ PAYBACK

4 сезон

9 сезон

Бесстыжие 9 сезон

Все сериалы

все сериалы на PB.wtf

RePack

FAR CRY 5
  

Заложница 2 [2в1: Театральная и Расширенная версии] / Taken 2 [2in1: Theatrical & Unrated Cut][ Оливье Мегатон,Боевик, Триллер, Криминал,DUB +Оригинал,2012 Blu-ray Disc USA]-лицензия pb.wtf

Заложница 2 через торрент pb.wtf

Размер: 43.03 GB | Добавлен: 7 лет 9 мес. назад | Торрент скачан:15 раз
Скачать  

10-02-2013 21:05 Заложница 2 Скачать торрент  



Заложница 2/Taken 2

«Сначала они приняли его дочь. Теперь они идут за ним. »
Год выпуска: 2012
Страна: Франция
Жанр: боевик, триллер, криминал
Продолжительность: 01:32:07.897 | 01:38:18.684
Перевод: Профессиональный (полное дублирование)
СубтитрыRussian (Full-length - на обе версии), Russian (Forced - на места без перевода расширенной версии, задействуются автоматически при выборе русской дорожки из меню), Chinese
Оригинальная аудиодорожка: English
Тип релиза: Лицензия

Режиссер: Оливье Мегатон
Продюссер: Люк Бессон, Дилой Гюлюн, Мишель Мандавилль
Сценарий: Люк Бессон, Роберт Марк Кэмен

Бюджет: $45 000 000




Лиам Нисон, Мэгги Грэйс, Фамке Янссен, Лиленд Орсер, Джон Грайз, Д.Б. Суини, Люк Граймс, Раде Шербеджия, Кеворк Маликян, Ален Фиглаж


Брайану Миллсу придется расхлебывать последствия своих действий. Спасая свою дочь, он убил главаря банды, у которого - сюрприз! - есть отец по имени Мурад. Мурад жаждет отмщения и описывается как человек, отдающий приказы, но сам никогда никому не подчиняющийся. Мурад берет в заложники Миллса с супругой, и тут уже Ким Миллс нужно будет спасать своих родителей.
Качество: Blu-ray Disc[USA]
Формат: BDMV
Видео кодек: AVC
Аудио кодек: DTS,AC-3
Видео: 1920x1080p / 23,976 fps / 16:9 / High Profile 4.1, H.264, ~ 25909 kbps | ~ 25894 kbps
Аудио#1: 448 kbps/5.1 / 48 kHz / 448 kbps/Dolby Digital/English
Аудио#2: 384 kbps/5.1/48 kHz/384 kbps/DN -4dB (MVO - "Омикрон")Dolby Digital/Ukrainia
Аудио#3: 768 kbps/5.1/48 kHz/768 kbps/24-bit (DUB -> BD RUS)DTS Audio/Russian
Аудио#4: 448 kbps/5.1/48 kHz/448 kbps/Dolby Digital Audio/Chinese
Диск пересобран мною из оригинального блурэя, используемое програмное обеспечение: BD Reauthor от DVDLogic Software (http://www.dvd-logic.com) и Sonic Scenarist BD, Adobe Photoshop, SubRip, SubtitleWorkshop, Sony Sound Forge, Eac3to, DTS-HD Suite. Структура диска полностью сохранена.
Воспроизведение проверено на Arcsoft Total Media Player 5, Arcsoft Total Media Player 3, Power DVD10, Scenarist QC 1.5, Dune BD-Prime 3.0 и бытовом блурей плеере LG BX-580. (Содержимое папки "AACS" перенесено в "ANY!"). В случае черезчур длительной паузы после заставки "20йвек фокс" на тмт5 - для ускорения начала меню нажмите "следующая глава".

За участии в приобретении украинской озвучки - спасибо Hurtom!

Удаленные сцены (HD, 6:56): Пять коротких удаленных сцен, включая расширенные версии ног последовательности погони.
• альтернативный финал (HD, 25:00): Да, вы не ошиблись-25 минут. И этот финал довольно сильно отличается. Вся эта погоня автомобиля в посольство? Да, Ленор находится внутри автомобиля с ними, в то время как в театральном разреза она все еще с террористами в этой точке. Брайан падает его жена и дочь в посольство, а затем идет "закончить это дело».
• Black Ops Field Manual (Расширенная версия): Включите этот режим, чтобы посмотреть разрез рейтинга пленки с всплывающих видео в стиле усовершенствования показывать карты каждом месте, фактоидов о персонажах, и работает подсчитывает, сколько людей Bryan имеет погибших / раненых и расстояние, которое он путешествовал (в обоих миль и километров!).
• Сэма Инструменты Торговли (HD, 3:32): Выбор элементов в Bryan прецедентное бинокль, Walky рации, ножи, чтобы получить информацию о них. Или, вы можете просто нажать "играть все" и коротких участков видео воспроизводится автоматически.
• FX Movie Channel представляет характер с Лиам Нисон (SD, 5:01): «. Задача получить это право, а не делать это просто неаккуратно продолжение" Интервью с Нисон, которые обсуждаются Хм.
• Theatrical Trailer (HD, 2:24)
• Sneak Peek (HD, 2:19)

DISC INFO:

Disc Title:     Заложница 2 Blu-ray Disc[USA]-2в1
Disc Size:      46 201 958 510 bytes
Protection:     AACS
BD-Java:        Yes
BDInfo:         0.5.8

PLAYLIST REPORT:

Name:                   00800.MPLS
Length:                 1:32:07.897 (h:m:s.ms)
Size:                   24 122 025 984 bytes
Total Bitrate:          34,91 Mbps

(*) Indicates included stream hidden by this playlist.

VIDEO:

Codec                   Bitrate             Description    
-----                   -------             -----------    
MPEG-4 AVC Video        25909 kbps          1080p / 23,976 fps / 16:9 / High Profile 4.1
* MPEG-4 AVC Video      1014 kbps           480p / 23,976 fps / 16:9 / High Profile 3.2

AUDIO:

Codec                           Language        Bitrate         Description    
-----                           --------        -------         -----------    
DTS-HD Master Audio             English         3953 kbps       5.1 / 48 kHz / 3953 kbps / 24-bit (DTS Core: 5.1 / 48 kHz / 1509 kbps / 24-bit)
Dolby Digital Audio             English         448 kbps        5.1 / 48 kHz / 448 kbps
Dolby Digital Audio             Ukrainian       384 kbps        5.1 / 48 kHz / 384 kbps / DN -4dB
DTS Audio                       Russian         768 kbps        5.1 / 48 kHz / 768 kbps / 24-bit
Dolby Digital Audio             Chinese         448 kbps        5.1 / 48 kHz / 448 kbps

SUBTITLES:

Codec                           Language        Bitrate         Description    
-----                           --------        -------         -----------    
Presentation Graphics           English         25,497 kbps                    
Presentation Graphics           Russian         41,571 kbps                    
Presentation Graphics           Russian         0,215 kbps                      
Presentation Graphics           Chinese         14,028 kbps                    
Presentation Graphics           English         0,399 kbps                      
* Presentation Graphics         Chinese         8,784 kbps                      

FILES:

Name            Time In         Length          Size            Total Bitrate  
----            -------         ------          ----            -------------  
00940.M2TS      0:00:00.000     0:07:24.694     2 020 048 896   36 340          
00960.M2TS      0:07:24.694     0:05:58.858     1 541 246 976   34 359          
00942.M2TS      0:13:23.552     0:05:57.482     1 505 562 624   33 693          
00961.M2TS      0:19:21.034     0:03:00.388     774 819 840     34 362          
00944.M2TS      0:22:21.423     0:00:49.549     207 071 232     33 433          
00962.M2TS      0:23:10.972     0:08:25.004     2 154 153 984   34 125          
00946.M2TS      0:31:35.977     0:06:11.454     1 573 545 984   33 889          
00963.M2TS      0:37:47.431     0:00:32.824     137 502 720     33 512          
00948.M2TS      0:38:20.256     0:06:12.288     1 826 691 072   39 253          
00964.M2TS      0:44:32.544     0:01:32.675     390 979 584     33 750          
00950.M2TS      0:46:05.220     0:05:51.976     1 663 334 400   37 806          
00965.M2TS      0:51:57.197     0:03:09.439     808 943 616     34 162          
00952.M2TS      0:55:06.636     0:02:10.964     561 217 536     34 282          
00966.M2TS      0:57:17.600     0:03:21.451     884 293 632     35 117          
00954.M2TS      1:00:39.051     0:06:27.887     1 670 701 056   34 457          
00967.M2TS      1:07:06.939     0:08:32.678     2 191 577 088   34 198          
00956.M2TS      1:15:39.618     0:01:27.837     374 532 096     34 111          
00968.M2TS      1:17:07.456     0:01:25.710     368 240 640     34 371          
00958.M2TS      1:18:33.166     0:02:49.502     715 917 312     33 789          
00969.M2TS      1:21:22.669     0:00:58.308     246 945 792     33 881          
00971.M2TS      1:22:20.977     0:03:27.832     892 065 792     34 338          
00970.M2TS      1:25:48.810     0:06:19.087     1 612 634 112   34 032          

CHAPTERS:

Number          Time In         Length          Avg Video Rate  Max 1-Sec Rate  Max 1-Sec Time  Max 5-Sec Rate  Max 5-Sec Time  Max 10Sec Rate  Max 10Sec Time  Avg Frame Size  Max Frame Size  Max Frame Time  
------          -------         ------          --------------  --------------  --------------  --------------  --------------  --------------  --------------  --------------  --------------  --------------  
1               0:00:00.000     0:04:18.675     28 183 kbps     44 963 kbps     00:01:16.701    33 199 kbps     00:01:12.697    31 728 kbps     00:01:07.692    146 908 bytes   594 931 bytes   00:01:49.901    
2               0:04:18.675     0:03:06.477     26 311 kbps     31 581 kbps     00:05:15.356    30 476 kbps     00:04:19.509    29 559 kbps     00:04:18.675    137 176 bytes   336 152 bytes   00:05:15.398    
3               0:07:25.153     0:01:26.669     23 596 kbps     29 583 kbps     00:08:46.234    27 097 kbps     00:08:44.190    26 031 kbps     00:07:33.035    123 020 bytes   356 327 bytes   00:08:44.315    
4               0:08:51.822     0:03:54.317     26 424 kbps     32 104 kbps     00:09:50.881    30 579 kbps     00:11:08.501    30 421 kbps     00:11:15.216    137 763 bytes   388 050 bytes   00:09:49.922    
5               0:12:46.140     0:03:16.487     23 416 kbps     31 411 kbps     00:15:53.911    30 150 kbps     00:15:53.911    29 656 kbps     00:15:51.742    122 079 bytes   384 955 bytes   00:13:01.030    
6               0:16:02.628     0:03:39.719     26 762 kbps     31 993 kbps     00:17:39.183    30 367 kbps     00:18:04.291    30 153 kbps     00:18:04.291    139 527 bytes   415 120 bytes   00:18:06.335    
7               0:19:42.347     0:02:25.270     25 477 kbps     32 386 kbps     00:21:43.969    30 599 kbps     00:21:22.698    29 176 kbps     00:21:19.319    132 827 bytes   312 330 bytes   00:21:27.577    
8               0:22:07.617     0:03:04.809     24 207 kbps     31 930 kbps     00:23:57.269    28 821 kbps     00:23:57.269    27 258 kbps     00:22:51.578    126 204 bytes   367 482 bytes   00:23:57.310    
9               0:25:12.427     0:05:12.353     24 960 kbps     31 390 kbps     00:29:51.289    28 691 kbps     00:27:47.832    27 884 kbps     00:27:58.927    130 129 bytes   380 355 bytes   00:30:22.946    
10              0:30:24.781     0:04:25.473     25 563 kbps     33 662 kbps     00:34:40.119    30 501 kbps     00:34:03.332    29 029 kbps     00:34:01.747    133 275 bytes   319 964 bytes   00:34:08.212    
11              0:34:50.254     0:03:18.990     24 890 kbps     32 228 kbps     00:35:48.312    30 441 kbps     00:35:44.141    29 988 kbps     00:35:44.016    129 767 bytes   333 344 bytes   00:35:21.494    
12              0:38:09.245     0:03:24.579     29 886 kbps     33 935 kbps     00:39:57.394    31 073 kbps     00:39:53.390    30 722 kbps     00:39:48.385    155 810 bytes   314 340 bytes   00:38:41.861    
13              0:41:33.824     0:04:06.871     29 265 kbps     32 371 kbps     00:43:35.279    30 702 kbps     00:42:04.647    30 512 kbps     00:41:43.626    152 574 bytes   304 691 bytes   00:43:57.593    
14              0:45:40.696     0:04:58.297     27 905 kbps     37 149 kbps     00:48:10.053    31 415 kbps     00:48:06.133    30 675 kbps     00:48:01.169    145 485 bytes   384 502 bytes   00:48:10.721    
15              0:50:38.994     0:06:03.237     25 440 kbps     32 066 kbps     00:54:52.539    30 615 kbps     00:51:28.293    30 278 kbps     00:51:24.289    132 631 bytes   369 638 bytes   00:56:37.852    
16              0:56:42.232     0:03:43.014     26 016 kbps     33 946 kbps     01:00:09.772    30 684 kbps     00:58:31.674    30 256 kbps     00:58:26.669    135 635 bytes   328 842 bytes   01:00:21.617    
17              1:00:25.246     0:04:19.884     25 769 kbps     32 921 kbps     01:01:29.477    29 934 kbps     01:03:41.567    28 753 kbps     01:03:38.105    134 346 bytes   417 936 bytes   01:03:39.148    
18              1:04:45.131     0:02:25.854     24 376 kbps     33 288 kbps     01:05:01.355    29 022 kbps     01:05:03.899    28 397 kbps     01:04:58.894    127 088 bytes   304 957 bytes   01:05:46.942    
19              1:07:10.985     0:03:21.492     25 048 kbps     35 117 kbps     01:08:54.797    30 251 kbps     01:10:04.074    29 673 kbps     01:10:01.613    130 590 bytes   441 438 bytes   01:07:45.060    
20              1:10:32.478     0:05:16.899     25 333 kbps     32 483 kbps     01:13:01.418    30 662 kbps     01:12:57.414    30 055 kbps     01:12:56.538    132 076 bytes   339 519 bytes   01:12:03.986    
21              1:15:49.378     0:03:43.848     25 097 kbps     31 314 kbps     01:19:32.183    29 356 kbps     01:19:28.179    27 097 kbps     01:16:56.111    130 844 bytes   313 421 bytes   01:16:55.402    
22              1:19:33.226     0:03:38.426     25 748 kbps     31 246 kbps     01:23:03.686    30 527 kbps     01:22:59.682    30 088 kbps     01:22:55.220    134 237 bytes   333 974 bytes   01:22:09.090    
23              1:23:11.653     0:02:56.342     25 224 kbps     33 638 kbps     01:23:15.448    30 393 kbps     01:25:56.442    30 331 kbps     01:25:51.437    131 505 bytes   378 087 bytes   01:23:57.824    
24              1:26:07.995     0:05:59.901     24 660 kbps     33 561 kbps     01:26:21.217    31 347 kbps     01:26:17.296    30 819 kbps     01:26:12.291    128 583 bytes   384 297 bytes   01:27:32.914

DISC INFO:

Disc Title:     Заложница 2 Blu-ray Disc[USA]-2в1
Disc Size:      46 201 958 510 bytes
Protection:     AACS
BD-Java:        Yes
BDInfo:         0.5.8

PLAYLIST REPORT:

Name:                   00801.MPLS
Length:                 1:38:18.684 (h:m:s.ms)
Size:                   25 753 847 808 bytes
Total Bitrate:          34,93 Mbps

(*) Indicates included stream hidden by this playlist.

VIDEO:

Codec                   Bitrate             Description    
-----                   -------             -----------    
MPEG-4 AVC Video        25894 kbps          1080p / 23,976 fps / 16:9 / High Profile 4.1
* MPEG-4 AVC Video      1079 kbps           480p / 23,976 fps / 16:9 / High Profile 3.2

AUDIO:

Codec                           Language        Bitrate         Description    
-----                           --------        -------         -----------    
DTS-HD Master Audio             English         3899 kbps       5.1 / 48 kHz / 3899 kbps / 24-bit (DTS Core: 5.1 / 48 kHz / 1509 kbps / 24-bit)
* Dolby Digital Audio           English         448 kbps        5.1 / 48 kHz / 448 kbps
Dolby Digital Audio             Ukrainian       384 kbps        5.1 / 48 kHz / 384 kbps / DN -4dB
DTS Audio                       Russian         768 kbps        5.1 / 48 kHz / 768 kbps / 24-bit
* Dolby Digital Audio           Chinese         448 kbps        5.1 / 48 kHz / 448 kbps

SUBTITLES:

Codec                           Language        Bitrate         Description    
-----                           --------        -------         -----------    
Presentation Graphics           English         24,461 kbps                    
Presentation Graphics           Russian         41,213 kbps                    
Presentation Graphics           Russian         18,011 kbps                    
* Presentation Graphics         Chinese         13,536 kbps                    
Presentation Graphics           English         0,373 kbps                      
Presentation Graphics           Chinese         13,536 kbps                    

FILES:

Name            Time In         Length          Size            Total Bitrate  
----            -------         ------          ----            -------------  
00940.M2TS      0:00:00.000     0:07:24.694     2 020 048 896   36 340          
00941.M2TS      0:07:24.694     0:07:50.887     2 021 971 968   34 352          
00942.M2TS      0:15:15.581     0:05:57.482     1 505 562 624   33 693          
00943.M2TS      0:21:13.063     0:03:46.226     973 608 960     34 430          
00944.M2TS      0:24:59.289     0:00:49.549     207 071 232     33 433          
00945.M2TS      0:25:48.838     0:08:40.102     2 223 323 136   34 198          
00946.M2TS      0:34:28.941     0:06:11.454     1 573 545 984   33 889          
00947.M2TS      0:40:40.396     0:00:33.616     152 352 768     36 256          
00948.M2TS      0:41:14.013     0:06:12.288     1 826 691 072   39 253          
00949.M2TS      0:47:26.301     0:02:20.056     604 041 216     34 503          
00950.M2TS      0:49:46.358     0:05:51.976     1 663 334 400   37 806          
00951.M2TS      0:55:38.334     0:03:34.964     935 479 296     34 814          
00952.M2TS      0:59:13.299     0:02:10.964     561 217 536     34 282          
00953.M2TS      1:01:24.263     0:03:21.451     883 206 144     35 074          
00954.M2TS      1:04:45.715     0:06:27.887     1 670 701 056   34 457          
00955.M2TS      1:11:13.602     0:10:16.240     2 630 952 960   34 155          
00956.M2TS      1:21:29.843     0:01:27.837     374 532 096     34 111          
00957.M2TS      1:22:57.680     0:01:46.022     454 152 192     34 268          
00958.M2TS      1:24:43.703     0:02:49.502     715 917 312     33 789          
00959.M2TS      1:27:33.206     0:00:58.600     250 466 304     34 193          
00971.M2TS      1:28:31.806     0:03:27.832     892 065 792     34 338          
00972.M2TS      1:31:59.638     0:06:19.045     1 613 604 864   34 056          

CHAPTERS:

Number          Time In         Length          Avg Video Rate  Max 1-Sec Rate  Max 1-Sec Time  Max 5-Sec Rate  Max 5-Sec Time  Max 10Sec Rate  Max 10Sec Time  Avg Frame Size  Max Frame Size  Max Frame Time  
------          -------         ------          --------------  --------------  --------------  --------------  --------------  --------------  --------------  --------------  --------------  --------------  
1               0:00:00.000     0:04:18.549     28 183 kbps     44 963 kbps     00:01:16.701    33 199 kbps     00:01:12.697    31 728 kbps     00:01:07.692    146 909 bytes   594 931 bytes   00:01:49.901    
2               0:04:18.549     0:03:06.603     26 316 kbps     31 581 kbps     00:05:15.356    30 476 kbps     00:04:19.509    29 559 kbps     00:04:18.675    137 198 bytes   336 152 bytes   00:05:15.398    
3               0:07:25.153     0:04:35.775     25 437 kbps     32 605 kbps     00:11:56.257    30 397 kbps     00:11:55.256    29 192 kbps     00:11:50.918    132 619 bytes   370 806 bytes   00:10:31.380    
4               0:12:00.928     0:02:37.365     25 573 kbps     35 224 kbps     00:12:07.059    31 215 kbps     00:12:03.097    30 444 kbps     00:12:02.221    133 325 bytes   313 147 bytes   00:14:18.816    
5               0:14:38.294     0:03:16.487     23 815 kbps     31 411 kbps     00:17:45.939    30 237 kbps     00:15:10.659    30 088 kbps     00:15:05.613    124 161 bytes   352 628 bytes   00:17:32.885    
6               0:17:54.782     0:03:41.346     26 812 kbps     31 993 kbps     00:19:31.211    30 574 kbps     00:21:20.028    30 421 kbps     00:21:17.901    139 785 bytes   415 120 bytes   00:19:58.363    
7               0:21:36.128     0:03:09.522     25 267 kbps     32 491 kbps     00:24:21.918    30 463 kbps     00:23:54.599    29 415 kbps     00:23:52.681    131 730 bytes   364 021 bytes   00:21:43.343    
8               0:24:45.650     0:03:04.809     24 197 kbps     31 978 kbps     00:26:35.135    28 828 kbps     00:26:35.135    27 258 kbps     00:25:29.444    126 151 bytes   367 809 bytes   00:26:35.176    
9               0:27:50.460     0:05:12.311     24 939 kbps     31 492 kbps     00:32:29.155    28 686 kbps     00:30:25.698    27 873 kbps     00:30:36.793    130 023 bytes   381 840 bytes   00:33:00.812    
10              0:33:02.772     0:04:40.613     25 582 kbps     33 662 kbps     00:37:33.084    30 501 kbps     00:36:56.297    29 029 kbps     00:36:54.712    133 371 bytes   319 964 bytes   00:37:01.177    
11              0:37:43.386     0:03:19.824     25 162 kbps     32 228 kbps     00:38:41.277    30 441 kbps     00:38:37.106    29 988 kbps     00:38:36.981    131 185 bytes   333 344 bytes   00:38:14.458    
12              0:41:03.210     0:03:24.537     30 064 kbps     33 935 kbps     00:42:51.151    31 073 kbps     00:42:47.147    30 722 kbps     00:42:42.142    156 742 bytes   314 340 bytes   00:41:35.618    
13              0:44:27.748     0:04:25.598     29 365 kbps     32 371 kbps     00:46:29.036    30 702 kbps     00:44:58.403    30 512 kbps     00:44:37.382    153 095 bytes   315 782 bytes   00:48:37.956    
14              0:48:53.347     0:05:27.035     27 327 kbps     37 149 kbps     00:51:51.191    31 415 kbps     00:51:47.270    30 675 kbps     00:51:42.307    142 472 bytes   384 502 bytes   00:51:51.858    
15              0:54:20.382     0:06:28.763     25 395 kbps     31 685 kbps     00:55:12.308    30 615 kbps     00:55:09.431    30 278 kbps     00:55:05.427    132 396 bytes   369 638 bytes   01:00:44.515    
16              1:00:49.145     0:03:43.014     26 010 kbps     33 502 kbps     01:02:42.341    30 671 kbps     01:02:38.337    30 268 kbps     01:02:33.332    135 605 bytes   327 665 bytes   01:02:42.758    
17              1:04:32.159     0:04:19.884     25 735 kbps     32 921 kbps     01:05:36.140    29 934 kbps     01:07:48.230    28 753 kbps     01:07:44.768    134 171 bytes   417 936 bytes   01:07:45.811    
18              1:08:52.044     0:02:25.812     24 369 kbps     33 288 kbps     01:09:08.018    29 022 kbps     01:09:10.562    28 397 kbps     01:09:05.557    127 048 bytes   304 957 bytes   01:09:53.605    
19              1:11:17.856     0:04:30.645     25 140 kbps     33 382 kbps     01:12:01.733    30 403 kbps     01:13:37.996    29 847 kbps     01:15:11.173    131 069 bytes   382 631 bytes   01:11:38.418    
20              1:15:48.502     0:05:51.434     25 457 kbps     32 983 kbps     01:18:29.996    30 736 kbps     01:18:25.992    30 037 kbps     01:18:44.844    132 721 bytes   340 034 bytes   01:17:18.592    
21              1:21:39.936     0:04:04.202     25 093 kbps     31 314 kbps     01:25:42.720    29 497 kbps     01:25:38.967    27 273 kbps     01:25:34.128    130 825 bytes   338 150 bytes   01:23:50.024    
22              1:25:44.138     0:03:38.927     25 746 kbps     31 246 kbps     01:29:14.515    30 527 kbps     01:29:10.511    30 088 kbps     01:29:06.048    134 229 bytes   334 202 bytes   01:28:19.919    
23              1:29:23.065     0:02:56.217     25 227 kbps     33 638 kbps     01:29:26.277    30 395 kbps     01:32:07.271    30 326 kbps     01:32:07.229    131 522 bytes   378 087 bytes   01:30:08.653    
24              1:32:19.283     0:05:59.400     24 690 kbps     33 133 kbps     01:32:32.171    31 390 kbps     01:32:28.209    30 832 kbps     01:32:23.204    128 737 bytes   382 686 bytes   01:33:44.827



Релиз предоставлен:by -АДмин
pb.wtf



Скачать Заложница 2 через торрент http://i54.fastpic.ru/big/2013/0210/e7/638e57fb7606c6fbdefef339d37312e7.png Скачать фильм Заложница 2 [2в1: Театральная и Расширенная версии] через торрент бесплантно в хорошем качестве Год выпуска: 2012Страна: ФранцияЖанр: боевик, триллер, криминалПродолжительность: 01:32:897 | 01:38:18.684Перевод: Профессиональный ... 5 10 1
Info! Золотая раздача, скачанное не засчитывается.
Торрент: Зарегистрирован [2013-02-10 21:05] · скачан: 15 раз
Статус: √ проверено
Размер: 43.03 GB
Как cкачать? Как скачать Заложница 2 через торрент | qTorrent

% Раздел Тема Автор DL S | L
Фильмы 2012 [ 1.46 GB ] Заложница 2 / Taken 2 [2012 НDRip] лицензия diletant Скачать
1 | 0


Последний раз редактировалось: Зайчина (2013-02-10 22:09), всего редактировалось 4 раз(а)

28-11-2019 20:33  

Отключить всю рекламу на сайте

10-02-2013 21:21 Заложница 2 Скачать торрент  

Спасибо , а можно сделать 1080 рип по меньше размером ? Хотя бы по гигов 10 на фильмpb.wtf



    Дорогой пользователь! Огромная просьба, поблагодарите релизера, оцените раздачу и оставьте свои комментарий, если Вы скачали Заложница 2 через торрент бесплатно! Внесите свою лепту в развитие PiratBit!
    Комментировать посты могут только пользователи прошедшие не сложную регистрацию
    Показать сообщения:    

    Заложница 2 через торрент
    Скачать бесплатно Заложница 2
    Заложница 2 скачать торрент
    Заложница 2 смотреть онлайн
    Cкачать фильм Заложница 2 бесплатно
    Заложница 2 скачать торрент в хорошем качестве
    Заложница 2 смотреть онлайн бесплатно в хорошем качестве


    Вы не можете начинать темы
    Вы не можете отвечать на сообщения
    Вы не можете редактировать свои сообщения
    Вы не можете удалять свои сообщения
    Вы не можете голосовать в опросах
    Вы не можете прикреплять файлы к сообщениям
    Вы можете скачивать файлы