Ссылка на приватное зеркало нашего сайта всего за 1$. Внимание количество ограничено!!!

2 сезон

iTunes

1 сезон

1

iTunes

iTunes

iTunes

1 сезон

RePack

30

ИГРА 18+

pack

ВАЖНО

!!Акция!!

Alien_RageХит недели

RePack

MK11
pack

Забери бонус

RePack

jed

!!Акция!!

Alien_Rage

RePack

fifa19

RePack

Assassins Creed: Odyssey

RePack

NEED FOR SPEED™ PAYBACK

4 сезон

9 сезон

Бесстыжие 9 сезон

Все сериалы

все сериалы на PB.wtf

RePack

FAR CRY 5
  

Исходный код / Source Code (Дункан Джонс) [2011 г., фантастика, боевик, триллер, BDRip 1080р] pb.wtf

Исходный код через торрент pb.wtf

Размер: 10.29 GB | Добавлен: 9 лет 2 мес. назад | Торрент скачан:398 раз
Скачать  

28-07-2011 17:14 Исходный код Скачать торрент  

Исходный код
Source Code




Год выпуска: 2011
Страна: США, Франция
Жанр: фантастика, боевик, триллер
Продолжительность: 01:33:12
Перевод: Профессиональный (полное дублирование) НТВ+

Режиссер: Дункан Джонс

В ролях: Джейк Джилленхол, Мишель Монахэн, Вера Фармига, Джеффри Райт, Майкл Арден, Кэс Анвар, Расселл Питерс, Бренд Скафорд, Крэйг Томас, Гордон Мастен

Описание: Герой фильма — солдат, который оказывается в теле некоего человека, и вынужден постоянно переживать чудовищный взрыв поезда, пока не поймёт, кто его устроил.



Качество: BDRip 1080р
Формат: MKV
Видео кодек: AVC
Аудио кодек: AC3
Видео: AVC, 1920x1080 (16/9), 23.976 fps, 13.9 Mbps (0.272 bit/pixel)
Аудио #1: AC-3, 48.0 KHz, 6 ch, 448 Kbps, CBR (Russian)
Аудио #2: DTS, 48.0 KHz, 6 ch, 1 510 Kbps, CBR
Субтитры:English, Russian
Complete name Source.code.2011.BluRay.1080p.AC3,DTS.x264-CHD.mkv
Format : Matroska
File size : 10.3 GiB
Duration : 1h 33mn
Overall bit rate : 15.8 Mbps
Encoded date : UTC 2011-07-27 17:01:50
Writing application : mkvmerge v4.2.0 ('No Talking') сборка от Jul 28 2010 18:38:23
Writing library : libebml v1.0.0 + libmatroska v1.0.0

Video
ID : 1
Format : AVC
Format/Info : Advanced Video Codec
Format profile : High@L4.1
Format settings, CABAC : Yes
Format settings, ReFrames : 4 frames
Codec ID : V_MPEG4/ISO/AVC
Duration : 1h 33mn
Bit rate : 13.9 Mbps
Width : 1 920 pixels
Height : 1 080 pixels
Display aspect ratio : 16:9
Frame rate : 23.976 fps
Color space : YUV
Chroma subsampling : 4:2:0
Bit depth : 8 bits
Scan type : Progressive
Bits/(Pixel*Frame) : 0.279
Stream size : 8.81 GiB (86%)
Title : Source.code.2011
Writing library : x264 core 114 r1924 08d04a4
Encoding settings : cabac=1 / ref=4 / deblock=1:-3:-3 / analyse=0x3:0x113 / me=umh / subme=10 / psy=1 / psy_rd=1.05:0.10 / mixed_ref=1 / me_range=48 / chroma_me=1 / trellis=2 / 8x8dct=1 / cqm=2 / deadzone=21,11 / fast_pskip=0 / chroma_qp_offset=-2 / threads=12 / sliced_threads=0 / nr=0 / decimate=1 / interlaced=0 / constrained_intra=0 / bframes=6 / b_pyramid=2 / b_adapt=2 / b_bias=0 / direct=3 / weightb=1 / open_gop=0 / weightp=2 / keyint=250 / keyint_min=23 / scenecut=40 / intra_refresh=0 / rc_lookahead=60 / rc=2pass / mbtree=1 / bitrate=13850 / ratetol=1.0 / qcomp=0.60 / qpmin=1 / qpmax=63 / qpstep=4 / cplxblur=20.0 / qblur=0.5 / vbv_maxrate=40000 / vbv_bufsize=40000 / nal_hrd=none / ip_ratio=1.40 / aq=2:0.80
Language : English

Audio #1
ID : 2
Format : AC-3
Format/Info : Audio Coding 3
Mode extension : CM (complete main)
Codec ID : A_AC3
Duration : 1h 33mn
Bit rate mode : Constant
Bit rate : 448 Kbps
Channel(s) : 6 channels
Channel positions : Front: L C R, Side: L R, LFE
Sampling rate : 48.0 KHz
Bit depth : 16 bits
Compression mode : Lossy
Stream size : 299 MiB (3%)
Title : 448 Kbps
Language : Russian

Audio #2
ID : 3
Format : DTS
Format/Info : Digital Theater Systems
Codec ID : A_DTS
Duration : 1h 33mn
Bit rate mode : Constant
Bit rate : 1 510 Kbps
Channel(s) : 6 channels
Channel positions : Front: L C R, Side: L R, LFE
Sampling rate : 48.0 KHz
Bit depth : 24 bits
Compression mode : Lossy
Stream size : 1 007 MiB (10%)
Title : DTS-CORE 1536K
Language : English

Text #1
ID : 4
Format : UTF-8
Codec ID : S_TEXT/UTF8
Codec ID/Info : UTF-8 Plain Text
Language : English

Text #2
ID : 5
Format : UTF-8
Codec ID : S_TEXT/UTF8
Codec ID/Info : UTF-8 Plain Text
Language : Russian
pb.wtf



Скачать Исходный код через торрент http://i3.imageban.ru/out/2011/07/24/a0304b7b6e4916dc072267bd64ea74eb.png Скачать фильм Исходный код через торрент бесплантно в хорошем качестве Описание: Герой фильма — солдат, который оказывается в теле некоего человека, и вынужден постоянно переживать чудовищный взрыв поезда, пока ... 10 10 6
Info! Золотая раздача, скачанное не засчитывается.
Торрент: Зарегистрирован [2011-07-28 17:14] · скачан: 398 раз
Статус: √ проверено
Размер: 10.29 GB
Как cкачать? Как скачать Исходный код через торрент | qTorrent

% Раздел Тема Автор DL S | L
* Фильмы [HD 720p, 1080p] (Хороший звук DUB, MVO) [ 11.89 GB ] Исходный код / Source Code [2011 BDRip-HEVC 1080p] 2хDUB + MVO + 3xAVO RealOldGamer Скачать
4 | 0
Ultra HD (UHD: 2K, 4K, 8K) — видео сверхвысокой чёткости [ 44.66 GB ] Исходный код / Source Code [2011 UHD BDRemux 2160p] DUB [Dolby Vision TV] sheker187 Скачать
1 | 0
Ultra HD (UHD: 2K, 4K, 8K) — видео сверхвысокой чёткости [ 59.72 GB ] Исходный код / Source Code [2011 UHD Blu-Ray 2160p] DUB + 2xAVO [HDR + Dolby Vision] [Custom] sheker187 Скачать
1 | 0
Фильмы 2011 [ 701 MB ] Исходный код / Source Code [2011 HDRip] 700 mb SD Скачать
2 | 0
Ultra HD (UHD: 2K, 4K, 8K) — видео сверхвысокой чёткости [ 23.69 GB ] Исходный код / Source Code [2011 UHD BDRip 2160p] DUB + 2xAVO sheker187 Скачать
1 | 0
Ultra HD (UHD: 2K, 4K, 8K) — видео сверхвысокой чёткости [ 50.86 GB ] Исходный код / Source Code [2011 UHD BDRemux 2160p] DUB + 2xAVO + VO sheker187 Скачать
2 | 0
Фильмы с авторской озвучкой [ 1.5 GB ] Исходный код / Source Code [2011 BDRip] [AVO] killermax2013 Скачать
1 | 0


Последний раз редактировалось: smaster (2011-07-29 19:05), всего редактировалось 1 раз

28-11-2019 20:33  

Отключить всю рекламу на сайте

28-07-2011 18:46 Исходный код Скачать торрент  

звука нетpb.wtf



28-07-2011 19:16 Исходный код Скачать торрент  

smoke
Проверил на 2-ух плеерах, со звуком Все в порядке!pb.wtf



28-07-2011 20:28 Исходный код Скачать торрент  

Звук есть.pb.wtf



04-08-2011 14:58 Исходный код Скачать торрент  

:tease:pb.wtf



    Дорогой пользователь! Огромная просьба, поблагодарите релизера, оцените раздачу и оставьте свои комментарий, если Вы скачали Исходный код через торрент бесплатно! Внесите свою лепту в развитие PiratBit!
    Комментировать посты могут только пользователи прошедшие не сложную регистрацию
    Показать сообщения:    

    Исходный код через торрент
    Скачать бесплатно Исходный код
    Исходный код скачать торрент
    Исходный код смотреть онлайн
    Cкачать фильм Исходный код бесплатно
    Исходный код скачать торрент в хорошем качестве
    Исходный код смотреть онлайн бесплатно в хорошем качестве


    Вы не можете начинать темы
    Вы не можете отвечать на сообщения
    Вы не можете редактировать свои сообщения
    Вы не можете удалять свои сообщения
    Вы не можете голосовать в опросах
    Вы не можете прикреплять файлы к сообщениям
    Вы можете скачивать файлы