Ссылка на приватное зеркало всего за 1$. Внимание количество ограничено!!!

iTunes

iTunes

iTunes

1

iTunes

iTunes

iTunes

iTunes

iTunes

30
pack

$ от Little Big

ВАЖНО

!!Акция!!

Alien_RageХит недели

RePack

Resident Evil 21

ИГРА 18+

pack

RePack

jed

!!Акция!!

Alien_Rage

RePack

fifa19

RePack

Assassins Creed: Odyssey

RePack

NEED FOR SPEED™ PAYBACK

4 сезон

9 сезон

Бесстыжие 9 сезон

Все сериалы

все сериалы на PB.wtf

RePack

FAR CRY 5
  

Риддик / Riddick (Дэвид Туи) [2013, фантастика, боевик, триллер, WEB-DL 720p] Дубляж [iTunes] pb.wtf

Риддик через торрент pb.wtf

Размер: 3.96 GB | Добавлен: 6 лет 6 мес. назад | Торрент скачан:1506 раз
Скачать  

17-12-2013 08:33 Риддик Скачать торрент  

Риддик / Riddick«Лучший способ отомстить - остаться в живых»

Год выпуска: 2013
Страна: США , Великобритания
Жанр: фантастика, боевик, триллер
Продолжительность: 01:58:39
Перевод: Профессиональный (дублированный) [iTunes]

Режиссер: Дэвид Туи
Сценарий: Дэвид Туи, Джим Уит, Кен Уит
Продюсер: Вин Дизель, Тед Филд, Камилль Браун, ...

Бюджет: $38 000 000
Сборы в США: $42 025 135
Сборы в мире: + $56 312 160 = $98 337 295
Сборы в России: $10 246 070
Зрители: Россия 1.42 млн , Франция 489.8 тыс. , Турция 329.3 тыс.
Премьера (мир): 4 сентября 2013,
Премьера (РФ): 12 сентября 2013, «Централ Партнершип»
Рейтинг MPAA: Лицам до 17 лет обязательно присутствие взрослого

В ролях: Вин Дизель / Vin Diesel (Riddick), Хорди Молья / Jordi Molla (Santana), Мэтью Нэйбл / Matthew Nable (Boss Johns), Кэти Сакхофф / Katee Sackhoff (Dahl), Дэйв Батиста / Dave Bautista (Diaz), Букем Вудбайн / Bokeem Woodbine (Moss), Рауль Трухильо / Raoul Trujillo (Lockspur), Конрад Пла / Conrad Pla (Vargas)


Описание: Преданный своими и брошенный умирать на пустынной планете, Риддик сражается с хищниками за жизнь и становится сильнее и опаснее себя прежнего. Открывшие на него охоту галактические наемники оказываются пешками в грандиозном плане отмщения. С врагами, возникающими на его пути тогда, когда это нужно самому Риддику, он начинает поход во имя мести, чтобы в конечном счете вернуться на родную Фурию и спасти ее от уничтожения.



Качество: WEB-DL (720p)
Формат: MKV
Видео кодек: AVC
Аудио кодеk: AC3
Видео: 1280x532 (2.40:1), 23.976 fps, AVC, 3 913 Kbps
Аудио: Аудио #1: AC3, 384 Kbps, 48.0 KHz, 6 ch Русский(дубляж)
Аудио #2: AC3, 384 Kbps, 48.0 KHz, 6 ch Английский

Код:

General
Complete name                    : R1dd1k.2013.D.WEB-DL.720p.mkv
Format                           : Matroska
File size                        : 3.96 GiB
Duration                         : 1h 58mn
Overall bit rate                 : 4 776 Kbps
Encoded date                     : UTC 2013-12-17 06:46:36
Writing application              : mkvmerge v5.8.0 ('No Sleep / Pillow') built on Sep  2 2012 15:37:04
Writing library                  : libebml v1.2.3 + libmatroska v1.3.0

Video
ID                               : 1
Format                           : AVC
Format/Info                      : Advanced Video Codec
Format profile                   : Main@L3.1
Format settings, CABAC           : No
Format settings, ReFrames        : 2 frames
Muxing mode                      : Container profile=Unknown@3.1
Codec ID                         : V_MPEG4/ISO/AVC
Duration                         : 1h 58mn
Bit rate                         : 3 913 Kbps
Width                            : 1 280 pixels
Height                           : 532 pixels
Display aspect ratio             : 2.40:1
Frame rate                       : 23.976 fps
Color space                      : YUV
Chroma subsampling               : 4:2:0
Bit depth                        : 8 bits
Scan type                        : Progressive
Bits/(Pixel*Frame)               : 0.240
Stream size                      : 3.24 GiB (82%)
Color primaries                  : BT.709-5, BT.1361, IEC 61966-2-4, SMPTE RP177
Transfer characteristics         : BT.709-5, BT.1361
Matrix coefficients              : BT.709-5, BT.1361, IEC 61966-2-4 709, SMPTE RP177

Audio #1
ID                               : 2
Format                           : AC-3
Format/Info                      : Audio Coding 3
Mode extension                   : CM (complete main)
Codec ID                         : A_AC3
Duration                         : 1h 58mn
Bit rate mode                    : Constant
Bit rate                         : 384 Kbps
Channel(s)                       : 6 channels
Channel positions                : Front: L C R, Side: L R, LFE
Sampling rate                    : 48.0 KHz
Bit depth                        : 16 bits
Stream size                      : 326 MiB (8%)
Language                         : Russian

Audio #2
ID                               : 3
Format                           : AC-3
Format/Info                      : Audio Coding 3
Mode extension                   : CM (complete main)
Codec ID                         : A_AC3
Duration                         : 1h 58mn
Bit rate mode                    : Constant
Bit rate                         : 384 Kbps
Channel(s)                       : 6 channels
Channel positions                : Front: L C R, Side: L R, LFE
Sampling rate                    : 48.0 KHz
Bit depth                        : 16 bits
Stream size                      : 326 MiB (8%)

Menu
00:00:00.000                     : en:1
00:05:37.000                     : en:2
00:12:10.000                     : en:3
00:18:20.000                     : en:4
00:22:05.000                     : en:5
00:26:20.000                     : en:6
00:32:12.000                     : en:7
00:38:29.000                     : en:8
00:42:49.000                     : en:9
00:50:28.000                     : en:10
00:55:25.000                     : en:11
01:01:38.000                     : en:12
01:09:32.000                     : en:13
01:14:07.000                     : en:14
01:20:57.000                     : en:15
01:25:35.000                     : en:16
01:33:41.000                     : en:17
01:39:41.000                     : en:18
01:47:55.000                     : en:19
01:54:46.000                     : en:20

pb.wtf



Скачать Риддик через торрент http://i59.fastpic.ru/big/2013/1217/78/0cd0d5aaf647dad9bce4bcd4b245d878.jpg Скачать фильм Риддик через торрент бесплантно в хорошем качестве Описание: Преданный своими и брошенный умирать на пустынной планете, Риддик сражается с хищниками за жизнь и становится сильнее и опаснее ... 9.9 10 53
Info! Золотая раздача, скачанное не засчитывается.
Торрент: Зарегистрирован [2013-12-17 08:33] · скачан: 1 506 раз
Статус: √ проверено
Размер: 3.96 GB
Как cкачать? Как скачать Риддик через торрент | qTorrent

% Раздел Тема Автор DL S | L
Фильмы (WEB-DL 720p, 1080p) [ 8.67 GB ] Хроники Риддика / The Chronicles of Riddick [2004 WEB-DL 1080p ] DUB [Мосфильм-Мастер] bober100 Скачать
1 | 0
Фильмы 2001-2005 [ 2.05 GB ] Хроники Риддика / The Chronicles of Riddick [2004 . HDRip-AVC Полное Дублирование ] akcent Скачать
1 | 0
Фильмы 2001-2005 [ 2.05 GB ] Хроники Риддика / The Chronicles of Riddick [2004 DVDRip] Anonymous Скачать
1 | 0
Фильмы (Blu-ray, BD-Remux, HDDVD) [ 39.36 GB ] Риддик / Riddick [2013 BDRemux 1080p] DUB + 3xAVO [Расширенная Версия] sheker187 Скачать
1 | 0
Сборники и Сиквелы (48-60 fps) [ 20.08 GB ] Риддик / Riddick [Дэвид Туи / David Twohy BDRip 720p / 60 FPS / Director's Cut / Трилогия] KEYS Скачать
1 | 0
Сборники и Сиквелы (48-60 fps) [ 28.82 GB ] Риддик / Riddick [Трилогия] [1999 2004 2013 BDRip 1080p DUB] 60fps [Director's Cut] Ворон Скачать
3 | 0
Видео (iPhone, iPod Touch) [ 3.6 GB ] Риддик / Riddick [2013 BDRip 1080p ] makarevich Скачать
1 | 0

28-11-2019 20:33  

Отключить всю рекламу на сайте

    Дорогой пользователь! Огромная просьба, поблагодарите релизера, оцените раздачу и оставьте свои комментарий, если Вы скачали Риддик через торрент бесплатно! Внесите свою лепту в развитие PiratBit!
    Комментировать посты могут только пользователи прошедшие не сложную регистрацию
    Показать сообщения:    

    Риддик через торрент
    Скачать бесплатно Риддик
    Риддик скачать торрент
    Риддик смотреть онлайн
    Cкачать фильм Риддик бесплатно
    Риддик скачать торрент в хорошем качестве
    Риддик смотреть онлайн бесплатно в хорошем качестве


    Вы не можете начинать темы
    Вы не можете отвечать на сообщения
    Вы не можете редактировать свои сообщения
    Вы не можете удалять свои сообщения
    Вы не можете голосовать в опросах
    Вы не можете прикреплять файлы к сообщениям
    Вы можете скачивать файлы