Ссылка на приватное зеркало нашего сайта всего за 1$. Внимание количество ограничено!!!

2 сезон

iTunes

1 сезон

1

iTunes

iTunes

iTunes

1 сезон

RePack

30

ИГРА 18+

pack

ВАЖНО

!!Акция!!

Alien_RageХит недели

RePack

MK11
pack

Забери бонус

RePack

jed

!!Акция!!

Alien_Rage

RePack

fifa19

RePack

Assassins Creed: Odyssey

RePack

NEED FOR SPEED™ PAYBACK

4 сезон

9 сезон

Бесстыжие 9 сезон

Все сериалы

все сериалы на PB.wtf

RePack

FAR CRY 5
  

Открытая могила / Open Grave (Гонсало Лопес-Гальего) [2013 г., триллер, ужасы, HDRip, VO (В.Белов)] pb.wtf

Открытая могила через торрент pb.wtf

Размер: 2.06 GB | Добавлен: 6 лет 7 мес. назад | Торрент скачан:55 раз
Скачать  

04-03-2014 16:52 Открытая могила Скачать торрент  

Открытая могила / Open Grave
Год выпуска: 2013
Страна: США / Atlas Independent, 852 Films, Speranza13 Media
Жанр: триллер, ужасы
Продолжительность: 01:42:12
Перевод: Одноголосый закадровый (В.Белов)

Режиссер: Гонсало Лопес-Гальего



В ролях: Шарлто Копли, Джозеф Морган, Томас Кречман, Эрин Ричардс, Джози Хо, Макс Роттсли, Кати Домби, Ева Ботос, Марта Сабо, М. Фрайкс.

Описание: История человека, который однажды обнаруживает себя в яме в окружении трупов. При этом он ничего не помнит, не знает, кто он, откуда и как сюда попал. С помощью товарищей по несчастью, тоже потерявших память, он должен вычислить убийцу, который, по всей вероятности, находится среди них.

Качество: HDRip
Формат: AVI
Видео кодек: XviD
Аудио кодек: AC3
Видео: 720x304 (2.37:1), 24.000 fps, XviD build 50 ~2424 kbps avg, 0.46 bit/pixel
Аудио: 48 kHz, AC3 Dolby Digital, 3/2 (L,C,R,l,r) + LFE ch, ~448 kbps


Общее
Полное имя : H:киноOpen.Grave.2013.HDRip.avi
Формат : AVI
Формат/Информация : Audio Video Interleave
Профиль формата : OpenDML
Размер файла : 2,06 Гбайт
Продолжительность : 1 ч. 42 м.
Общий поток : 2879 Кбит/сек
Программа кодирования : VirtualDubMod 1.5.10.3 | www.virtualdub-fr.org || (build 2550/release)
Библиотека кодирования : VirtualDubMod build 2550/release

Видео
Идентификатор : 0
Формат : MPEG-4 Visual
Профиль формата : Advanced Simple@L5
Параметр BVOP формата : 2
Параметр QPel формата : Нет
Параметр GMC формата : Без точки перехода
Параметр матрицы формата : Default (H.263)
Идентификатор кодека : XVID
Идентификатор кодека/Подсказка : XviD
Продолжительность : 1 ч. 42 м.
Битрейт : 2419 Кбит/сек
Ширина : 720 пикселей
Высота : 304 пикселя
Соотношение сторон : 2,35:1
Частота кадров : 24,000 кадра/сек
Цветовое пространство : YUV
Субдискретизация насыщенности : 4:2:0
Битовая глубина : 8 бит
Тип развёртки : Прогрессивная
Метод сжатия : С потерями
Бит/(Пиксели*Кадры) : 0.461
Размер потока : 1,73 Гбайт (84%)
Библиотека кодирования : XviD 1.2.1 (UTC 2008-12-04)

Аудио
Идентификатор : 1
Формат : AC-3
Формат/Информация : Audio Coding 3
Расширение режима : CM (complete main)
Параметр Endianness формата : Big
Идентификатор кодека : 2000
Продолжительность : 1 ч. 42 м.
Вид битрейта : Постоянный
Битрейт : 448 Кбит/сек
Каналы : 6 каналов
Расположение каналов : Front: L C R, Side: L R, LFE
Частота : 48,0 КГц
Битовая глубина : 16 бит
Метод сжатия : С потерями
Размер потока : 327 Мбайт (16%)
Выравнивание : Разделение по промежуткам
Продолжительность промежутка : 42 мс. (1,00 видеокадр)
Время предзагрузки промежутка : 500 мс.

pb.wtf



Скачать Открытая могила через торрент http://pic.kartinco.top/images/6/mgwbr.jpg Скачать фильм Открытая могила через торрент бесплантно в хорошем качестве Описание: История человека, который однажды обнаруживает себя в яме в окружении трупов. При этом он ничего не помнит, не знает, кто он, ... 10 10 2
Торрент: Зарегистрирован [2014-03-04 16:52] · скачан: 55 раз
Статус: T временная
Размер: 2.06 GB
Как cкачать? Как скачать Открытая могила через торрент | qTorrent

% Раздел Тема Автор DL S | L
T Фильмы 2013 (Звук TS, Cam, VO, DVO) [ 1.37 GB ] Открытая могила / Open Grave [ 2013 HDRip ] DVO [DeadSno & den904] GEKADOL Скачать
1 | 0
T Фильмы 2013 (Звук TS, Cam, VO, DVO) [ 1.37 GB ] Открытая могила / Open Grave [ 2013 HDRip ]L1 GEKADOL Скачать
1 | 0

28-11-2019 20:33  

Отключить всю рекламу на сайте

    Дорогой пользователь! Огромная просьба, поблагодарите релизера, оцените раздачу и оставьте свои комментарий, если Вы скачали Открытая могила через торрент бесплатно! Внесите свою лепту в развитие PiratBit!
    Комментировать посты могут только пользователи прошедшие не сложную регистрацию
    Показать сообщения:    

    Открытая могила через торрент
    Скачать бесплатно Открытая могила
    Открытая могила скачать торрент
    Открытая могила смотреть онлайн
    Cкачать фильм Открытая могила бесплатно
    Открытая могила скачать торрент в хорошем качестве
    Открытая могила смотреть онлайн бесплатно в хорошем качестве


    Вы не можете начинать темы
    Вы не можете отвечать на сообщения
    Вы не можете редактировать свои сообщения
    Вы не можете удалять свои сообщения
    Вы не можете голосовать в опросах
    Вы не можете прикреплять файлы к сообщениям
    Вы можете скачивать файлы